Your IP Address is . Location is Your ISP and Government can track your torrent activity! Hide your IP with a VPN!

18+ Wildling 2018 HDRip XviD AC3 With Sample LLG

DOWNLOAD TORRENT DOWNLOAD PROTECT YOUR PRIVACY

Posted by LifeLongg •598 on April 16, 2018 in Movies » Drama , verified torrent

Size: 993.7 MB , Seeds: 7 , Peers: 4 ( Updated April 22, 2018 - Refresh )

* Download via Magnet Link , * To download files you need a Bittorrent Client , * How to download torrents from Bit Torrent Scene?

Scrape History ( seeds + peers )

Internal Files

18+.Wildling.2018.HDRip.XviD.AC3.With.Sample.LLG
Sample.ts   32.61 MB
18+.Wildling.2018.HDRip.XviD.AC3.With.Sample.LLG.mp4   961.09 MB

Hash Code

a44860ed5791f98582d31a952a14f92c2b39a478

Description

SCREENSHOT

SCREENSHOT

******************************Thumbnail:**********************

SCREENSHOT

******************************Screenshots:********************

Screenshot 1

Screenshot 2

Screenshot 3

Screenshot 4

Screenshot 5

Screenshot 6

Screenshot 7

Screenshot 8

Screenshot 9

Screenshot 0

**************************************************************

Complete name : 18+.Wildling.2018.HDRip.XviD.AC3.With.Sample.LLG.mp4
Format : MPEG-4
Format profile : Base Media
Codec ID : isom (isom/iso2/avc1/mp41)
File size : 961 MiB
Duration : 1 h 32 min
Overall bit rate : 1 452 kb/s
Writing application : Lavf57.56.101

Video
ID : 1
Format : AVC
Format/Info : Advanced Video Codec
Format profile : High@L3
Format settings : CABAC / 4 Ref Frames
Format settings, CABAC : Yes
Format settings, RefFrames : 4 frames
Codec ID : avc1
Codec ID/Info : Advanced Video Coding
Duration : 1 h 32 min
Bit rate : 1 200 kb/s
Width : 720 pixels
Height : 304 pixels
Display aspect ratio : 2.35:1
Frame rate mode : Constant
Frame rate : 23.976 (23976/1000) FPS
Color space : YUV
Chroma subsampling : 4:2:0
Bit depth : 8 bits
Scan type : Progressive
Bits/(Pixel*Frame) : 0.229
Stream size : 788 MiB (82%)

Audio
ID : 2
Format : AC-3
Format/Info : Audio Coding 3
Codec ID : ac-3
Duration : 1 h 32 min
Bit rate mode : Constant
Bit rate : 256 kb/s
Channel(s) : 6 channels
Channel positions : Front: L C R, Side: L R, LFE
Sampling rate : 48.0 kHz
Frame rate : 31.250 FPS (1536 SPF)
Bit depth : 16 bits
Compression mode : Lossy
Stream size : 169 MiB (18%)
Service kind : Complete Main
Default : Yes
Alternate group : 1

Trackers

Refresh Leechers : Updated April 22, 2018

1. udp://tracker.openbittorrent.com:80/announce

2. udp://tracker.opentrackr.org:1337/announce

3. UDP://TRACKER.LEECHERS-PARADISE.ORG:6969/ANNOUNCE

Comments

You must log in to add a comment.

Embed Code

Sharing Widget

Related torrents

FILENAME SIZE SEEDS PEERS ADDED UPD
[i] Wildling.2018.HDRip.XviD.AC3-EVO 1.35 GB 11 7 1 week 6 days

Top Movies ( auto generated report )

FILENAME SIZE SEEDS PEERS ADDED UPD
[i] Fifty Shades Freed (2018) [WEBRip] [720p] [YTS AM] 891.52 MB 3978 5590 21 hours 19 hours
[i] Pacific Rim 2 Uprising 2018 720p korsub hdrip x264 aac2 0-stuttershit 2.75 GB 3342 743 3 days 2 days
[i] What Happened to Monday (2017) [BluRay] [720p] [YTS AM] 1.04 GB 3233 1826 21 hours 19 hours
[i] Fifty Shades Freed (2018) [WEBRip] [1080p] [YTS AM] 1.68 GB 3115 3679 21 hours 19 hours
[i] What Happened to Monday (2017) [BluRay] [1080p] [YTS AM] 1.99 GB 2250 1066 21 hours 19 hours
[i] Genesis (2018) [WEBRip] [720p] [YTS AM] 965.85 MB 1369 860 3 days 2 days
[i] downloadhub in Sonu Ke Titu Ki Sweety (2018) Hindi 720p HDRip x264 AAC ESubs - Downloadhub 1.06 GB 1297 910 6 days 3 days
[i] Corbin Nash (2018) [WEBRip] [720p] [YTS AM] 824.69 MB 1240 725 3 days 2 days
[i] The Debt Collector (2018) [BluRay] [720p] [YTS AM] 818.36 MB 1225 444 3 days 1 day
[i] Genesis (2018) [WEBRip] [1080p] [YTS AM] 1.81 GB 1010 581 3 days 2 days