Your IP Address is . Location is Your ISP and Government can track your torrent activity! Hide your IP with a VPN!

Acts of Violence 2017 1080p WEBRip 6CH AAC x264 - EiE

DOWNLOAD TORRENT DOWNLOAD DOWNLOAD ANONYMOUS

Posted on January 13, 2018 in Movies » Misc , verified torrent

Size: 1.5 GB , Seeds: 70 , Peers: 7 ( Updated January 19, 2018 - Refresh )

* Download via Magnet Link , * To download files you need a Bittorrent Client , * How to download torrents from Bit Torrent Scene?

Scrape History ( seeds + peers )

Internal Files

Acts of Violence 2017 1080p WEBRip 6CH AAC x264 - EiE
Read Me.txt   794 Byte
ECLiPSE.txt   14.04 KB
Acts of Violence 2017.srt   74.35 KB
Acts of Violence 2017.mp4   1.5 GB

Hash Code

6224b2c27ebbcb82f1dc60bd4a385ad8fcad5631

Description

SCREENSHOT

SCREENSHOT

SCREENSHOT
Click on the link to see Screenshot:

https://lensdump.com/i/Y4vzP

https://lensdump.com/i/Y4nCZ

https://lensdump.com/i/Y4Lwm

https://lensdump.com/i/Y4Y1i




Code:
Video

ID : 1

Format : AVC

Format/Info : Advanced Video Codec

Format settings : CABAC / 4 Ref Frames

Format settings, CABAC : Yes

Format settings, RefFrames : 4 frames

Codec ID : avc1

Codec ID/Info : Advanced Video Coding

Duration : 1 h 26 min

Bit rate : 2 233 kb/s

Maximum bit rate : 9 898 kb/s

Width : 1 904 pixels

Height : 792 pixels

Display aspect ratio : 2.40:1

Frame rate mode : Constant

Frame rate : 23.976 FPS

Color space : YUV

Chroma subsampling : 4:2:0

Bit depth : 8 bits

Scan type : Progressive

Bits/(Pixel*Frame) : 0.062

Stream size : 1.35 GiB (90%)


Audio

ID : 2

Format : AAC

Format/Info : Advanced Audio Codec

Format profile : LC

Duration : 1 h 26 min

Bit rate mode : Variable

Bit rate : 238 kb/s

Maximum bit rate : 304 kb/s

Channel(s) : 6 channels

Channel positions : Front: L C R, Side: L R, LFE

Sampling rate : 48.0 kHz

Frame rate : 46.875 FPS

Compression mode : Lossy

Stream size : 148 MiB (10%)

Language : English


Torrent location

https://www.1337x.to/torrent/2728722/Acts-of-Violence-2017-1080p-WEBRip-6CH-AAC-x264-EiE/

Trackers

Refresh Leechers : Updated January 19, 2018

1. http://bigfoot1942.sektori.org:6969/announce

2. http://tracker2.wasabii.com.tw:6969/announce

3. http://tracker.opentrackr.org/announce

4. http://announce.torrentsmd.com:6969/announce

5. http://tracker.trackerfix.com/announce

6. http://tracker.opentrackr.org/announce

7. udp://explodie.org:6969/announce

8. udp://mgtracker.org:6969/announce

9. udp://asnet.pw:2710/announce

10. udp://tracker.mgtracker.org:2710/announce

11. udp://tracker4.piratux.com:6969/announce

12. udp://tracker.trackerfix.com:80/announce

13. udp://tracker.pomf.se:80/announce

14. udp://tracker.x4w.co:6969/announce

15. udp://castradio.net:6969/announce

16. udp://ipv4.tracker.harry.lu:80/announce

17. udp://tracker.mg64.net:6881/announce

18. udp://tracker.sktorrent.net:6969/announce

19. udp://tracker.blackunicorn.xyz:6969/announce

20. udp://tracker.internetwarriors.net:1337/announce

21. udp://public.popcorn-tracker.org:6969/announce

22. udp://glotorrents.pw:6969/announce

23. udp://tracker.vanitycore.co:6969/announce

24. udp://tracker.trackerfix.com:80/announce

25. udp://p4p.arenabg.ch:1337/announce

26. udp://9.rarbg.me:2710/announce

27. udp://tracker.zer0day.to:1337/announce

28. udp://tracker.opentrackr.org:1337/announce

29. udp://tracker.pirateparty.gr:6969/announce

30. udp://9.rarbg.to:2710/announce

31. udp://eddie4.nl:6969/announce

32. udp://tracker.coppersurfer.tk:6969/announce

33. udp://tracker.leechers-paradise.org:6969/announce

34. udp://tracker.zer0day.to:1337/announce

35. udp://tracker.vanitycore.co:6969/announce

36. udp://tracker.torrent.eu.org:451/announce

37. udp://tracker.pirateparty.gr:6969/announce

38. udp://tracker.opentrackr.org:1337/announce

39. udp://tracker.internetwarriors.net:1337/announce

40. udp://tracker.grepler.com:6969/announce

41. udp://thetracker.org:80/announce

42. udp://shadowshq.yi.org:6969/announce

43. udp://p4p.arenabg.com:1337/announce

44. udp://eddie4.nl:6969/announce

45. udp://9.rarbg.to:2720/announce

46. udp://9.rarbg.me:2770/announce

47. udp://tracker.coppersurfer.tk:80/announce

Comments

You must log in to add a comment.

Embed Code

Sharing Widget

Top Movies ( auto generated report )

FILENAME SIZE SEEDS PEERS ADDED UPD
[i] Geostorm (2017) [1080p] [YTS AG] 1.67 GB 5515 2716 5 days 3 days
[i] Geostorm (2017) [720p] [YTS AG] 812.63 MB 5216 4259 5 days 2 days
[i] Jigsaw (2017) [720p] [YTS AG] 675.39 MB 3922 2227 5 days 4 days
[i] Thor.Ragnarok.2017.HDRip.XviD.AC3-EVO[EtMovies] 1.61 GB 2564 1672 1 day 14 hours
[i] Jigsaw (2017) [1080p] [YTS AG] 1.4 GB 2479 970 5 days 3 days
[i] Mollys Game 2017 DVDScr XVID AC3 HQ Hive CM8 1.79 GB 2207 1893 5 days 4 days
[i] The Man from Earth Holocene (2017) [720p] [YTS AG] 726.46 MB 2189 1099 4 days 3 days
[i] Last Flag Flying (2017) [720p] [YTS AG] 903.74 MB 1947 1219 4 days 3 days
[i] Thor.Ragnarok.2017.HDRip.XviD.AC3-EVO 1.6 GB 1860 1338 1 day 12 hours
[i] The Man from Earth Holocene (2017) [1080p] [YTS AG] 1.51 GB 1803 773 4 days 3 days