Badmaash (2018) 720p Hindi Dubbed HDRip x264 AAC by Full4movies

DOWNLOAD ( MAGNET LINK ) DOWNLOAD DOWNLOAD ANONYMOUS

Posted on June 14, 2018 in Movies » Misc

Size: 991.3 MB , Seeds: 2 , Peers: 15 ( Updated June 14, 2018 - Refresh )

* Download via Magnet Link , * To download files you need a Bittorrent Client , * How to download torrents from Bit Torrent Scene?

Scrape History ( seeds + peers )

Internal Files

Badmaash (2018) 720p Hindi Dubbed HDRip x264 AAC by Full4movies
Badmaash   2018) 720p Hindi Dubbed HDRip x264 AAC by Full4movies.mkv (991.3 MB

Hash Code

8adbc1654d0abbf5b85c17b5db24475407984c11

Description

SCREENSHOT

General

Complete name : Badmaash (2018) 720p Hindi Dubbed HDRip x264 AAC by Full4movies.mkv

Format : Matroska

Format version : Version 4 / Version 2

File size : 991 MiB

Duration : 1 h 38 min

Overall bit rate : 1 402 kb/s

Encoded date : UTC 2018-06-13 07:46:35

Writing application : mkvmerge v8.1.0 ('Psychedelic Postcard') 32bit

Writing library : libebml v1.3.1 + libmatroska v1.4.2


Video

ID : 1

Format : AVC

Format/Info : Advanced Video Codec

Format profile : [email protected]
Format settings, CABAC : Yes

Format settings, RefFrames : 3 frames

Codec ID : V_MPEG4/ISO/AVC

Duration : 1 h 38 min

Bit rate : 1 274 kb/s

Width : 1 280 pixels

Height : 720 pixels

Display aspect ratio : 16:9

Frame rate mode : Constant

Frame rate : 25.000 FPS

Color space : YUV

Chroma subsampling : 4:2:0

Bit depth : 8 bits

Scan type : Progressive

Bits/(Pixel*Frame) : 0.055

Stream size : 901 MiB (91%)

Default : Yes

Forced : No

Color range : Limited

Color primaries : BT.709

Transfer characteristics : BT.709

Matrix coefficients : BT.709


Audio

ID : 2

Format : AAC

Format/Info : Advanced Audio Codec

Format profile : LC

Codec ID : A_AAC

Duration : 1 h 38 min

Bit rate : 126 kb/s

Channel(s) : 2 channels

Channel positions : Front: L R

Sampling rate : 44.1 kHz

Frame rate : 43.066 FPS (1024 SPF)

Compression mode : Lossy

Stream size : 88.8 MiB (9%)

Language : Hindi

Default : Yes

Forced : No


Screen Shoots
SCREENSHOT

Torrent location

https://www.1337x.to/torrent/3054559/Badmaash-2018-720p-Hindi-Dubbed-HDRip-x264-AAC-by-Full4movies/

Trackers

Refresh Leechers : Updated June 14, 2018

1. udp://9.rarbg.com:2710/announce

2. udp://tracker.opentrackr.org:1337/announce

3. udp://tracker.pirateparty.gr:6969/announce

4. udp://tracker.leechers-paradise.org:6969/announce

5. udp://tracker.coppersurfer.tk:6969/announce

6. udp://tracker.zer0day.to:1337/announce

Comments

You must log in to add a comment.

Embed Code

Sharing Widget

Related torrents

FILENAME SIZE SEEDS PEERS ADDED UPD
[i] Badmaash (2018) 720p Hindi Dubbed HD x264 AAC 1GB [MOVCR] MP4
posted by Tamilgun in Movies - Action
992.15 MB 8 4 6 days 17 hours

Top Movies ( auto generated report )

FILENAME SIZE SEEDS PEERS ADDED UPD
[i] Escape Plan 2 Hades (2018) [BluRay] [720p] [YTS AM] 821.12 MB 6877 4793 1 day 5 hours
[i] Escape Plan 2 Hades (2018) [BluRay] [1080p] [YTS AM] 1.52 GB 4347 2178 1 day 5 hours
[i] Beirut (2018) [WEBRip] [720p] [YTS AM] 929.6 MB 2164 1197 1 day 5 hours
[i] Set It Up (2018) [WEBRip] [720p] [YTS AM] 888.3 MB 2122 1500 1 day 5 hours
[i] Ghostland (2018) [BluRay] [720p] [YTS AM] 780.16 MB 1789 1179 1 day 4 hours
[i] Beirut (2018) [WEBRip] [1080p] [YTS AM] 1.75 GB 1719 799 1 day 5 hours
[i] Acrimony (2018) [WEBRip] [720p] [YTS AM] 1017.95 MB 1692 1180 3 days 2 days
[i] Truth or Dare 2018 HDRip XViD AC3-ETRG 1.24 GB 1593 1114 2 days 1 day
[i] Ghostland (2018) [BluRay] [1080p] [YTS AM] 1.46 GB 1324 706 1 day 4 hours
[i] The Yellow Birds (2017) [WEBRip] [720p] [YTS AM] 813 MB 1320 976 1 day 5 hours