Your IP Address is . Location is Your ISP and Government can track your torrent activity! Hide your IP with a VPN!

Blade Runner 2049 (2017) HDRip XviD AC3 LLG

DOWNLOAD TORRENT DOWNLOAD PROTECT YOUR PRIVACY

Posted by LifeLongg •584 on January 11, 2018 in Movies » Drama , verified torrent

Size: 1.34 GB , Seeds: 6 , Peers: 5 ( Updated April 20, 2018 )

* Download via Magnet Link , * To download files you need a Bittorrent Client , * How to download torrents from Bit Torrent Scene?

Scrape History ( seeds + peers )

Internal Files

Blade Runner 2049.(2017).HDRip.XviD.AC3.LLG
Sample.ts   16.28 MB
Blade Runner 2049.(2017).HDRip.XviD.AC3.LLG.mp4   1.32 GB

Hash Code

70986a6f179ae4219cb2f03a4e2ac364a72d4a1d

Description

******************************Thumbnail:**********************

SCREENSHOT

******************************Screenshots:********************

Screenshot 1

Screenshot 2

Screenshot 3

Screenshot 4

Screenshot 5

Screenshot 6

Screenshot 7

Screenshot 8

Screenshot 9

Screenshot 0

**************************************************************

Complete name : Blade Runner 2049.(2017).HDRip.XviD.AC3.LLG.mp4
Format : MPEG-4
Format profile : Base Media
Codec ID : isom (isom/iso2/avc1/mp41)
File size : 1.32 GiB
Duration : 2 h 43 min
Overall bit rate : 1 156 kb/s
Writing application : Lavf57.56.101

Video
ID : 1
Format : AVC
Format/Info : Advanced Video Codec
Format profile : High@L3
Format settings : CABAC / 4 Ref Frames
Format settings, CABAC : Yes
Format settings, RefFrames : 4 frames
Codec ID : avc1
Codec ID/Info : Advanced Video Coding
Duration : 2 h 43 min
Bit rate : 900 kb/s
Width : 720 pixels
Height : 304 pixels
Display aspect ratio : 2.35:1
Frame rate mode : Constant
Frame rate : 23.976 (23976/1000) FPS
Color space : YUV
Chroma subsampling : 4:2:0
Bit depth : 8 bits
Scan type : Progressive
Bits/(Pixel*Frame) : 0.171
Stream size : 1.02 GiB (77%)


Audio
ID : 2
Format : AC-3
Format/Info : Audio Coding 3
Codec ID : ac-3
Duration : 2 h 43 min
Bit rate mode : Constant
Bit rate : 256 kb/s
Channel(s) : 6 channels
Channel positions : Front: L C R, Side: L R, LFE
Sampling rate : 48.0 kHz
Frame rate : 31.250 FPS (1536 SPF)
Bit depth : 16 bits
Compression mode : Lossy
Stream size : 299 MiB (22%)
Service kind : Complete Main
Default : Yes
Alternate group : 1

Trackers

Refresh Leechers : Updated April 20, 2018

1. udp://tracker.openbittorrent.com:80/announce

2. udp://tracker.opentrackr.org:1337/announce

Comments

You must log in to add a comment.

Embed Code

Sharing Widget

Related torrents

FILENAME SIZE SEEDS PEERS ADDED UPD
[i] Blade Runner 2049 2017 HDRip XViD AC3-ETRG
posted by juggs in Movies - Sci-fi
1.7 GB 22 5 3 months 1 week
[i] Blade.Runner.2049.HDRip.x264.AC3-Manning 2.36 GB 8 4 3 months 2 weeks
[i] Blade Runner 2049 2017 HDRip DD2 0 x264-BDP 1.02 GB 5 3 3 months 1 week
[i] Blade.Runner.2049.HDRip.x264.AC3-Manning[EtMovies] 2.37 GB 4 4 3 months 2 weeks
[i] Blade.Runner.2049.2017.HDRip.DD2.0.x264-BDP[SN] 1.02 GB 4 3 3 months 1 week

Top Movies ( auto generated report )

FILENAME SIZE SEEDS PEERS ADDED UPD
[i] Tremors.A.Cold.Day.in.Hell.2018.DVDRip.XviD.AC3-EVO 1.43 GB 90 100 18 hours 15 hours
[i] downloadhub in Sonu Ke Titu Ki Sweety (2018) Hindi 720p HDRip x264 AAC ESubs - Downloadhub 1.06 GB 87 299 18 hours 15 hours
[i] Tremors A Cold Day in Hell.2018.DVDRip.XviD.AC3-EVO 1.43 GB 78 159 20 hours 17 hours
[i] Seven.Years.of.Night.2018.720p.HDRip.Ganool 900.3 MB 70 83 20 hours 13 hours
[i] Bleeding Steel.2017.HDRip.XviD.AC3-EVO 1.38 GB 90 108 12 hours 10 hours
[i] Early.Man.2018.READNFO.HDRip.XviD.AC3-iFT[N1C] 1.3 GB 36 42 20 hours 13 hours
[i] Bleeding.Steel.2017.HDRip.AC3.X264-CMRG[EtMovies] 1.58 GB 44 40 14 hours 11 hours
[i] Bleeding Steel.2017.HDRip.XviD.AC3-EVO[EtMovies] 1.38 GB 32 24 16 hours 14 hours
[i] The.Debt.Collector.2018.BDRip.x264-RUSTED[N1C] 643.2 MB 31 9 22 hours 17 hours
[i] Sonu Ke Titu Ki Sweety (2018) AMZN HDRip 720p Hindi H 264 ACC - LatestHDMovies mkv 1.3 GB 30 327 14 hours 12 hours