Your IP Address is . Location is Your ISP and Government can track your torrent activity! Hide your IP with a VPN!

Blade Runner 2049 (2017) HDRip XviD AC3 LLG

DOWNLOAD TORRENT DOWNLOAD DOWNLOAD ANONYMOUS

Posted by LifeLongg •275 on January 11, 2018 in Movies » Drama , verified torrent

Size: 1.34 GB , Seeds: 25 , Peers: 32 ( Updated January 17, 2018 - Refresh )

* Download via Magnet Link , * To download files you need a Bittorrent Client , * How to download torrents from Bit Torrent Scene?

Scrape History ( seeds + peers )

Internal Files

Blade Runner 2049.(2017).HDRip.XviD.AC3.LLG
Sample.ts   16.28 MB
Blade Runner 2049.(2017).HDRip.XviD.AC3.LLG.mp4   1.32 GB

Hash Code

70986a6f179ae4219cb2f03a4e2ac364a72d4a1d

Description

******************************Thumbnail:**********************

SCREENSHOT

******************************Screenshots:********************

Screenshot 1

Screenshot 2

Screenshot 3

Screenshot 4

Screenshot 5

Screenshot 6

Screenshot 7

Screenshot 8

Screenshot 9

Screenshot 0

**************************************************************

Complete name : Blade Runner 2049.(2017).HDRip.XviD.AC3.LLG.mp4
Format : MPEG-4
Format profile : Base Media
Codec ID : isom (isom/iso2/avc1/mp41)
File size : 1.32 GiB
Duration : 2 h 43 min
Overall bit rate : 1 156 kb/s
Writing application : Lavf57.56.101

Video
ID : 1
Format : AVC
Format/Info : Advanced Video Codec
Format profile : High@L3
Format settings : CABAC / 4 Ref Frames
Format settings, CABAC : Yes
Format settings, RefFrames : 4 frames
Codec ID : avc1
Codec ID/Info : Advanced Video Coding
Duration : 2 h 43 min
Bit rate : 900 kb/s
Width : 720 pixels
Height : 304 pixels
Display aspect ratio : 2.35:1
Frame rate mode : Constant
Frame rate : 23.976 (23976/1000) FPS
Color space : YUV
Chroma subsampling : 4:2:0
Bit depth : 8 bits
Scan type : Progressive
Bits/(Pixel*Frame) : 0.171
Stream size : 1.02 GiB (77%)


Audio
ID : 2
Format : AC-3
Format/Info : Audio Coding 3
Codec ID : ac-3
Duration : 2 h 43 min
Bit rate mode : Constant
Bit rate : 256 kb/s
Channel(s) : 6 channels
Channel positions : Front: L C R, Side: L R, LFE
Sampling rate : 48.0 kHz
Frame rate : 31.250 FPS (1536 SPF)
Bit depth : 16 bits
Compression mode : Lossy
Stream size : 299 MiB (22%)
Service kind : Complete Main
Default : Yes
Alternate group : 1

Trackers

Refresh Leechers : Updated January 17, 2018

1. udp://tracker.openbittorrent.com:80/announce

2. udp://tracker.opentrackr.org:1337/announce

Comments

You must log in to add a comment.

Embed Code

Sharing Widget

Related torrents

FILENAME SIZE SEEDS PEERS ADDED UPD
[i] Blade Runner 2049 2017 HDRip XViD AC3-ETRG
posted by juggs in Movies - Sci-fi
1.7 GB 103 23 3 weeks 1 week
[i] Blade.Runner.2049.HDRip.x264.AC3-Manning 2.36 GB 30 6 3 weeks 1 week
[i] Blade.Runner.2049.HDRip.x264.AC3-Manning[EtMovies] 2.37 GB 22 3 3 weeks 1 week
[i] Blade.Runner.2049.2017.HDRip.DD2.0.x264-BDP[SN] 1.02 GB 6 11 3 weeks 1 week
[i] Blade Runner 2049 2017 HDRip DD2 0 x264-BDP 1.02 GB 5 7 3 weeks 1 week

Top Movies ( auto generated report )

FILENAME SIZE SEEDS PEERS ADDED UPD
[i] Geostorm (2017) [1080p] [YTS AG] 1.67 GB 5515 2716 5 days 3 days
[i] Geostorm (2017) [720p] [YTS AG] 812.63 MB 5216 4259 5 days 3 days
[i] Jigsaw (2017) [720p] [YTS AG] 675.39 MB 2055 1016 6 days 5 hours
[i] Thor.Ragnarok.2017.HDRip.XviD.AC3-EVO[EtMovies] 1.61 GB 2564 1672 1 day 1 day
[i] Jigsaw (2017) [1080p] [YTS AG] 1.4 GB 1907 973 6 days 5 hours
[i] Mollys Game 2017 DVDScr XVID AC3 HQ Hive CM8 1.79 GB 2420 691 6 days 7 hours
[i] The Man from Earth Holocene (2017) [720p] [YTS AG] 726.46 MB 2189 1099 4 days 3 days
[i] Last Flag Flying (2017) [720p] [YTS AG] 903.74 MB 1947 1219 4 days 3 days
[i] Thor.Ragnarok.2017.HDRip.XviD.AC3-EVO 1.6 GB 1860 1338 1 day 22 hours
[i] The Man from Earth Holocene (2017) [1080p] [YTS AG] 1.51 GB 1803 773 4 days 3 days