Your IP Address is . Location is Your ISP and Government can track your torrent activity! Hide your IP with a VPN!

Darkest Hour 2017 DVDSCR x264 AC3 LLG

DOWNLOAD TORRENT DOWNLOAD DOWNLOAD ANONYMOUS

Posted by LifeLongg •275 on January 12, 2018 in Movies » Drama , verified torrent

Size: 804.64 MB , Seeds: 24 , Peers: 7 ( Updated January 18, 2018 - Refresh )

* Download via Magnet Link , * To download files you need a Bittorrent Client , * How to download torrents from Bit Torrent Scene?

Scrape History ( seeds + peers )

Internal Files

Darkest.Hour.2017.DVDSCR.x264.AC3.LLG
Sample.ts   4.47 MB
Darkest.Hour.2017.DVDSCR.x264.AC3.LLG.mp4   800.17 MB

Hash Code

bf99e12ec31d96c0e94fb6091a335fc38734d488

Description

******************************Thumbnail:**********************

SCREENSHOT

******************************Screenshots:********************

Screenshot 1

Screenshot 2

Screenshot 3

Screenshot 4

Screenshot 5

Screenshot 6

Screenshot 7

Screenshot 8

Screenshot 9

Screenshot 0

**************************************************************

Complete name : Darkest.Hour.2017.DVDSCR.x264.AC3.LLG.mp4
Format : MPEG-4
Format profile : Base Media
Codec ID : isom (isom/iso2/avc1/mp41)
File size : 800 MiB
Duration : 2 h 4 min
Overall bit rate : 895 kb/s
Writing application : Lavf57.56.101

Video
ID : 1
Format : AVC
Format/Info : Advanced Video Codec
Format profile : High@L3
Format settings : CABAC / 4 Ref Frames
Format settings, CABAC : Yes
Format settings, RefFrames : 4 frames
Codec ID : avc1
Codec ID/Info : Advanced Video Coding
Duration : 2 h 4 min
Bit rate : 768 kb/s
Width : 720 pixels
Height : 384 pixels
Display aspect ratio : 1.85:1
Frame rate mode : Constant
Frame rate : 23.976 (23976/1000) FPS
Color space : YUV
Chroma subsampling : 4:2:0
Bit depth : 8 bits
Scan type : Progressive
Bits/(Pixel*Frame) : 0.116
Stream size : 681 MiB (85%)


Audio
ID : 2
Format : AC-3
Format/Info : Audio Coding 3
Codec ID : ac-3
Duration : 2 h 4 min
Bit rate mode : Constant
Bit rate : 128 kb/s
Channel(s) : 2 channels
Channel positions : Front: L R
Sampling rate : 48.0 kHz
Frame rate : 31.250 FPS (1536 SPF)
Bit depth : 16 bits
Compression mode : Lossy
Stream size : 114 MiB (14%)
Language : English
Service kind : Complete Main
Default : Yes
Alternate group : 1

Trackers

Refresh Leechers : Updated January 18, 2018

1. udp://tracker.openbittorrent.com:80/announce

2. udp://tracker.opentrackr.org:1337/announce

Comments

You must log in to add a comment.

Embed Code

Sharing Widget

Related torrents

FILENAME SIZE SEEDS PEERS ADDED UPD
[i]
[i]
Darkest.Hour.2017.DVDScr.XVID.AC3.HQ.Hive-CM8
1.92 GB 2179 593 1 week 4 days
[i] Darkest Hour (2017) DVDSCR 800MB - MkvCage 802.3 MB 244 27 1 week 4 days
[i] Darkest.Hour.2017.DVDScr.XVID.AC3.HQ.Hive-CM8[EtMovies] 1.93 GB 237 80 1 week 4 days
[i]
[i]
Darkest Hour 2017 DvDScr 700 MB - iExTV
Movies - Misc , Quality: Audio 10/10 - Video 10/10
703.3 MB 23 5 1 week 4 days

Top Movies ( auto generated report )

FILENAME SIZE SEEDS PEERS ADDED UPD
[i] Geostorm (2017) [1080p] [YTS AG] 1.67 GB 5515 2716 5 days 3 days
[i] Geostorm (2017) [720p] [YTS AG] 812.63 MB 5216 4259 5 days 3 days
[i] Jigsaw (2017) [720p] [YTS AG] 675.39 MB 2055 1016 6 days 5 hours
[i] Thor.Ragnarok.2017.HDRip.XviD.AC3-EVO[EtMovies] 1.61 GB 2564 1672 1 day 1 day
[i] Jigsaw (2017) [1080p] [YTS AG] 1.4 GB 1907 973 6 days 5 hours
[i] Mollys Game 2017 DVDScr XVID AC3 HQ Hive CM8 1.79 GB 2420 691 6 days 7 hours
[i] The Man from Earth Holocene (2017) [720p] [YTS AG] 726.46 MB 2189 1099 4 days 3 days
[i] Last Flag Flying (2017) [720p] [YTS AG] 903.74 MB 1947 1219 4 days 3 days
[i] Thor.Ragnarok.2017.HDRip.XviD.AC3-EVO 1.6 GB 1860 1338 1 day 22 hours
[i] The Man from Earth Holocene (2017) [1080p] [YTS AG] 1.51 GB 1803 773 4 days 3 days