Your IP Address is . Location is Your ISP and Government can track your torrent activity! Hide your IP with a VPN!

Darkest Hour 2017 DVDSCR x264 AC3 LLG

DOWNLOAD TORRENT DOWNLOAD PROTECT YOUR PRIVACY

Posted by LifeLongg •584 on January 12, 2018 in Movies » Drama , verified torrent

Size: 804.64 MB , Seeds: 8 , Peers: 8 ( Updated March 17, 2018 - Refresh )

* Download via Magnet Link , * To download files you need a Bittorrent Client , * How to download torrents from Bit Torrent Scene?

Scrape History ( seeds + peers )

Internal Files

Darkest.Hour.2017.DVDSCR.x264.AC3.LLG
Sample.ts   4.47 MB
Darkest.Hour.2017.DVDSCR.x264.AC3.LLG.mp4   800.17 MB

Hash Code

bf99e12ec31d96c0e94fb6091a335fc38734d488

Description

******************************Thumbnail:**********************

SCREENSHOT

******************************Screenshots:********************

Screenshot 1

Screenshot 2

Screenshot 3

Screenshot 4

Screenshot 5

Screenshot 6

Screenshot 7

Screenshot 8

Screenshot 9

Screenshot 0

**************************************************************

Complete name : Darkest.Hour.2017.DVDSCR.x264.AC3.LLG.mp4
Format : MPEG-4
Format profile : Base Media
Codec ID : isom (isom/iso2/avc1/mp41)
File size : 800 MiB
Duration : 2 h 4 min
Overall bit rate : 895 kb/s
Writing application : Lavf57.56.101

Video
ID : 1
Format : AVC
Format/Info : Advanced Video Codec
Format profile : High@L3
Format settings : CABAC / 4 Ref Frames
Format settings, CABAC : Yes
Format settings, RefFrames : 4 frames
Codec ID : avc1
Codec ID/Info : Advanced Video Coding
Duration : 2 h 4 min
Bit rate : 768 kb/s
Width : 720 pixels
Height : 384 pixels
Display aspect ratio : 1.85:1
Frame rate mode : Constant
Frame rate : 23.976 (23976/1000) FPS
Color space : YUV
Chroma subsampling : 4:2:0
Bit depth : 8 bits
Scan type : Progressive
Bits/(Pixel*Frame) : 0.116
Stream size : 681 MiB (85%)


Audio
ID : 2
Format : AC-3
Format/Info : Audio Coding 3
Codec ID : ac-3
Duration : 2 h 4 min
Bit rate mode : Constant
Bit rate : 128 kb/s
Channel(s) : 2 channels
Channel positions : Front: L R
Sampling rate : 48.0 kHz
Frame rate : 31.250 FPS (1536 SPF)
Bit depth : 16 bits
Compression mode : Lossy
Stream size : 114 MiB (14%)
Language : English
Service kind : Complete Main
Default : Yes
Alternate group : 1

Trackers

Refresh Leechers : Updated March 17, 2018

1. udp://tracker.openbittorrent.com:80/announce

2. udp://tracker.opentrackr.org:1337/announce

Comments

You must log in to add a comment.

Embed Code

Sharing Widget

Related torrents

FILENAME SIZE SEEDS PEERS ADDED UPD
[i]
[i]
Darkest.Hour.2017.DVDScr.XVID.AC3.HQ.Hive-CM8
1.92 GB 1252 132 3 months 1 month
[i] Darkest Hour 2017 DVDSCR x264 700MB - Makintos13 707.2 MB 42 2 3 months 1 month
[i]
[i]
Darkest Hour 2017 DvDScr 700 MB - iExTV
Movies - Misc , Quality: Audio 10/10 - Video 10/10
703.3 MB 16 3 3 months 1 month
[i] Darkest Hour 2017 DVDScr XVID AC3 LLG
posted by LifeLongg in Movies - Drama
929.68 MB 9 4 2 months 2 weeks

Top Movies ( auto generated report )

FILENAME SIZE SEEDS PEERS ADDED UPD
[i] Tremors.A.Cold.Day.in.Hell.2018.DVDRip.XviD.AC3-EVO 1.43 GB 90 100 18 hours 15 hours
[i] downloadhub in Sonu Ke Titu Ki Sweety (2018) Hindi 720p HDRip x264 AAC ESubs - Downloadhub 1.06 GB 87 299 18 hours 15 hours
[i] Tremors A Cold Day in Hell.2018.DVDRip.XviD.AC3-EVO 1.43 GB 78 159 20 hours 17 hours
[i] Seven.Years.of.Night.2018.720p.HDRip.Ganool 900.3 MB 70 83 20 hours 14 hours
[i] Bleeding Steel.2017.HDRip.XviD.AC3-EVO 1.38 GB 90 108 12 hours 10 hours
[i] Early.Man.2018.READNFO.HDRip.XviD.AC3-iFT[N1C] 1.3 GB 36 42 20 hours 14 hours
[i] Bleeding.Steel.2017.HDRip.AC3.X264-CMRG[EtMovies] 1.58 GB 44 40 14 hours 11 hours
[i] Bleeding Steel.2017.HDRip.XviD.AC3-EVO[EtMovies] 1.38 GB 32 24 16 hours 14 hours
[i] The.Debt.Collector.2018.BDRip.x264-RUSTED[N1C] 643.2 MB 31 9 22 hours 17 hours
[i] Sonu Ke Titu Ki Sweety (2018) AMZN HDRip 720p Hindi H 264 ACC - LatestHDMovies mkv 1.3 GB 30 327 14 hours 12 hours