Deadpool 2 (2018) Full Movie Hindi [Cam-Audio] 480p HDTS - ExtraMovies

DOWNLOAD ( MAGNET LINK ) DOWNLOAD DOWNLOAD ANONYMOUS

Posted on May 17, 2018 in Movies » Misc

Size: 713.4 MB , Seeds: 0 , Peers: 20 ( Updated May 17, 2018 - Refresh )

* Download via Magnet Link , * To download files you need a Bittorrent Client , * How to download torrents from Bit Torrent Scene?

Scrape History ( seeds + peers )

Internal Files

Deadpool 2 (2018) Full Movie Hindi [Cam-Audio] 480p HDTS - ExtraMovies
Deadpool 2   2018) Full Movie Hindi [Cam-Audio] 480p HDTS - ExtraMovies.mkv (713.4 MB

Hash Code

21583db1e484e0fcea5e95f1d8c45e124c71c4f1

Description

SCREENSHOT
http://extramovies.cc
Movie Info


Format : Matroska

Format version : Version 4 / Version 2

File size : 713 MiB

Duration : 1 h 49 min

Overall bit rate : 911 kb/s

Movie name : ExtraMovies.cc - Deadpool 2 (2018) 480p HDTS Hindi (Cam) x264 AAC

Encoded date : UTC 2018-05-17 10:30:32

Writing application : mkvmerge v20.0.0 ('I Am The Sun') 64-bit

Writing library : libebml v1.3.5 + libmatroska v1.4.8


Video

ID : 1

Format : AVC

Format/Info : Advanced Video Codec

Format profile : [email protected]
Format settings : CABAC / 8 Ref Frames

Format settings, CABAC : Yes

Format settings, RefFrames : 8 frames

Codec ID : V_MPEG4/ISO/AVC

Duration : 1 h 49 min

Bit rate : 813 kb/s

Width : 640 pixels

Height : 272 pixels

Display aspect ratio : 2.35:1

Frame rate mode : Variable

Frame rate : 23.976 (24000/1001) FPS

Color space : YUV

Chroma subsampling : 4:2:0

Bit depth : 8 bits

Scan type : Progressive

Bits/(Pixel*Frame) : 0.195

Stream size : 636 MiB (89%)

Title : ExtraMovies.cc

Writing library : x264 core 142 r2479 dd79a61

Encoding settings : cabac=1 / ref=8 / deblock=1:0:0 / analyse=0x3:0x113 / me=umh / subme=9 / psy=1 / psy_rd=1.00:0.00 / mixed_ref=1 / me_range=16 / chroma_me=1 / trellis=2 / 8x8dct=1 / cqm=0 / deadzone=21,11 / fast_pskip=1 / chroma_qp_offset=-2 / threads=12 / lookahead_threads=1 / sliced_threads=0 / nr=0 / decimate=1 / interlaced=0 / bluray_compat=0 / constrained_intra=0 / bframes=3 / b_pyramid=2 / b_adapt=2 / b_bias=0 / direct=3 / weightb=1 / open_gop=0 / weightp=2 / keyint=240 / keyint_min=24 / scenecut=40 / intra_refresh=0 / rc_lookahead=40 / rc=2pass / mbtree=1 / bitrate=813 / ratetol=1.0 / qcomp=0.60 / qpmin=0 / qpmax=69 / qpstep=4 / cplxblur=20.0 / qblur=0.5 / vbv_maxrate=62500 / vbv_bufsize=78125 / nal_hrd=none / filler=0 / ip_ratio=1.40 / aq=1:1.00

Default : Yes

Forced : No

Color range : Limited

Color primaries : BT.709

Transfer characteristics : BT.709

Matrix coefficients : BT.709


Audio

ID : 2

Format : AAC

Format/Info : Advanced Audio Codec

Format profile : LC

Codec ID : A_AAC-2

Duration : 1 h 49 min

Bit rate : 96.0 kb/s

Channel(s) : 2 channels

Channel positions : Front: L R

Sampling rate : 48.0 kHz

Frame rate : 46.875 FPS (1024 SPF)

Compression mode : Lossy

Delay relative to video : -117 ms

Stream size : 75.5 MiB (11%)

Title : ExtraMovies.cc

Language : Hindi

Default : Yes

Forced : No





SCREENSHOT

SCREENSHOT

SCREENSHOT

SCREENSHOT

http://extramovies.cc

Torrent location

https://www.1337x.to/torrent/3000176/Deadpool-2-2018-Full-Movie-Hindi-Cam-Audio-480p-HDTS-ExtraMovies/

Trackers

Refresh Leechers : Updated May 17, 2018

1. udp://9.rarbg.com:2710/announce

2. udp://tracker.opentrackr.org:1337/announce

3. udp://tracker.pirateparty.gr:6969/announce

4. udp://tracker.leechers-paradise.org:6969/announce

5. udp://tracker.coppersurfer.tk:6969/announce

6. udp://tracker.zer0day.to:1337/announce

Comments

You must log in to add a comment.

Embed Code

Sharing Widget

Top Movies ( auto generated report )

FILENAME SIZE SEEDS PEERS ADDED UPD
[i] Death Wish (2018) [WEBRip] [720p] [YTS AM] 905.39 MB 4867 2979 2 days 1 day
[i] Death Wish (2018) [WEBRip] [1080p] [YTS AM] 1.7 GB 4055 2408 2 days 1 day
[i] Gringo (2018) [WEBRip] [720p] [YTS AM] 940.05 MB 2754 2010 2 days 1 day
[i] Black Water (2018) [WEBRip] [720p] [YTS AM] 897.63 MB 2635 1460 2 days 1 day
[i] Fahrenheit 451 (2018) [WEBRip] [720p] [YTS AM] 864.37 MB 2206 1124 4 days 3 days
[i] The Strangers Prey at Night (2018) [WEBRip] [720p] [YTS AM] 724.75 MB 2024 1073 2 days 1 day
[i] Gringo (2018) [WEBRip] [1080p] [YTS AM] 1.77 GB 1990 898 2 days 1 day
[i] Black Water (2018) [WEBRip] [1080p] [YTS AM] 1.68 GB 1828 905 2 days 1 day
[i] Fahrenheit 451 (2018) [WEBRip] [1080p] [YTS AM] 1.62 GB 1676 713 4 days 3 days
[i] How to Talk to Girls at Parties (2017) [WEBRip] [720p] [YTS AM] 869.28 MB 1574 800 2 days 1 day