Your IP Address is . Location is Your ISP and Government can track your torrent activity! Hide your IP with a VPN!

Jigsaw 2017 1080p WEB-DL DD 5 1 x264

DOWNLOAD TORRENT DOWNLOAD DOWNLOAD ANONYMOUS

Posted by moviefreak •699 on January 9, 2018 in Movies » Horror , verified torrent

Size: 1.45 GB , Seeds: 19 , Peers: 14 ( Updated January 15, 2018 - Refresh )

* Download via Magnet Link , * To download files you need a Bittorrent Client , * How to download torrents from Bit Torrent Scene?

Scrape History ( seeds + peers )

Internal Files

Jigsaw 2017 1080p WEB-DL DD 5.1 x264
Jigsaw 2017 1080p WEB-DL DD 5.1 x264.mkv   1.45 GB

Hash Code

c7d49af49b347419e4abbc56deca29b170119a69

Description


SCREENSHOT

General
Format : Matroska
Format version : Version 4 / Version 2
File size : 1.45 GiB
Duration : 1 h 31 min
Overall bit rate : 2 263 kb/s

Video
ID : 1
Format : AVC
Format/Info : Advanced Video Codec
Format profile : High@L4.1
Format settings : CABAC / 4 Ref Frames
Format settings, CABAC : Yes
Format settings, ReFrames : 4 frames
Codec ID : V_MPEG4/ISO/AVC
Duration : 1 h 31 min
Bit rate : 2 100 kb/s
Width : 1 900 pixels
Height : 796 pixels
Display aspect ratio : 2.40:1
Frame rate mode : Constant
Frame rate : 23.976 (24000/1001) FPS
Color space : YUV
Chroma subsampling : 4:2:0
Bit depth : 8 bits
Scan type : Progressive
Bits/(Pixel*Frame) : 0.058
Stream size : 1.29 GiB (89%)
Writing library : x264 core 148 r2708 86b7198
Default : Yes
Forced : No

Audio
ID : 2
Format : AC-3
Format/Info : Audio Coding 3
Codec ID : A_AC3
Duration : 1 h 31 min
Bit rate mode : Constant
Bit rate : 256 kb/s
Channel(s) : 6 channels
Channel positions : Front: L C R, Side: L R, LFE
Sampling rate : 48.0 kHz
Frame rate : 31.250 FPS (1536 SPF)
Bit depth : 16 bits
Compression mode : Lossy
Stream size : 168 MiB (11%)
Language : English
Service kind : Complete Main
Default : Yes
Forced : No





SCREENSHOT
SCREENSHOT
SCREENSHOT
SCREENSHOT
SCREENSHOT
SCREENSHOT
SCREENSHOT
SCREENSHOT
SCREENSHOT
SCREENSHOT

Trackers

Refresh Leechers : Updated January 15, 2018

1. udp://tracker.coppersurfer.tk:6969/announce

2. udp://tracker.cyberia.is:6969/announce

3. udp://inferno.demonoid.pw:3391/announce

4. udp://open.stealth.si:80/announce

5. udp://tracker.pirateparty.gr:6969/announce

6. udp://peerfect.org:6969/announce

7. udp://p4p.arenabg.com:1337/announce

8. udp://p4p.arenabg.ch:1337/announce

9. udp://tracker.leechers-paradise.org:6969/announce

10. udp://ipv4.tracker.harry.lu:80/announce

11. udp://shadowshq.yi.org:6969/announce

12. udp://tracker.vanitycore.co:6969/announce

13. udp://tracker.opentrackr.org:1337/announce

14. udp://explodie.org:6969/announce

15. udp://tracker.zer0day.to:1337/announce

16. udp://tracker.leechers-paradise.org:6969/announce

17. udp://coppersurfer.tk:6969/announce

Comments

You must log in to add a comment.

Embed Code

Sharing Widget

Related torrents

FILENAME SIZE SEEDS PEERS ADDED UPD
[i] Jigsaw (2017) [1080p] [YTS AG] 1.4 GB 2479 970 5 days 2 days
[i] Jigsaw 2017 1080p BluRay x264 AC3 5 1 ESub
posted by moviefreak in Movies - Action
1.75 GB 20 25 3 days 2 days

Top Movies ( auto generated report )

FILENAME SIZE SEEDS PEERS ADDED UPD
[i] Geostorm (2017) [1080p] [YTS AG] 1.67 GB 5515 2716 5 days 2 days
[i] Geostorm (2017) [720p] [YTS AG] 812.63 MB 5216 4259 5 days 2 days
[i] Jigsaw (2017) [720p] [YTS AG] 675.39 MB 3922 2227 5 days 4 days
[i] Thor.Ragnarok.2017.HDRip.XviD.AC3-EVO[EtMovies] 1.61 GB 2564 1672 1 day 11 hours
[i] Jigsaw (2017) [1080p] [YTS AG] 1.4 GB 2479 970 5 days 2 days
[i] Mollys Game 2017 DVDScr XVID AC3 HQ Hive CM8 1.79 GB 2207 1893 5 days 4 days
[i] The Man from Earth Holocene (2017) [720p] [YTS AG] 726.46 MB 2189 1099 4 days 3 days
[i] Last Flag Flying (2017) [720p] [YTS AG] 903.74 MB 1947 1219 4 days 3 days
[i] Thor.Ragnarok.2017.HDRip.XviD.AC3-EVO 1.6 GB 1860 1338 1 day 9 hours
[i] The Man from Earth Holocene (2017) [1080p] [YTS AG] 1.51 GB 1803 773 4 days 3 days