Your IP Address is . Location is Your ISP and Government can track your torrent activity! Hide your IP with a VPN!

Jora 10 Numbaria 2017 720p HD Punjabi GOPISAHI

DOWNLOAD TORRENT DOWNLOAD DOWNLOAD ANONYMOUS

Posted by gopisahi •578 on January 14, 2018 in Movies » Action , verified torrent

Size: 568.29 MB , Seeds: 27 , Peers: 3 ( Updated January 20, 2018 - Refresh )

* Download via Magnet Link , * To download files you need a Bittorrent Client , * How to download torrents from Bit Torrent Scene?

Scrape History ( seeds + peers )

Internal Files

Jora 10 Numbaria 2017 720p HD Punjabi GOPISAHI.mkv
Jora 10 Numbaria 2017 720p HD Punjabi GOPISAHI.mkv   568.29 MB

Hash Code

29309b8d06f555663b85e75662e46d6a07e2f782

Description

SCREENSHOT
Format : Matroska
Format version : Version 4 / Version 2
File size : 568 MiB
Duration : 2 h 14 min
Overall bit rate : 589 kb/s
Movie name : Jora 10 Numbaria 2017

Video
Format : AVC
Codec ID : V_MPEG4/ISO/AVC
Duration : 2 h 14 min
Bit rate : 500 kb/s
Width : 1 280 pixels
Height : 536 pixels
Display aspect ratio : 2.40:1
Frame rate mode : Constant
Frame rate : 24.000 FPS
Stream size : 482 MiB (85%)
Writing library : x264

Audio: 2
Format : AAC
Duration : 2 h 14 min
Bit rate : 87.4 kb/s
Channel(s) : 6 channels
Channel positions : Front: L C R, Side: L R, LFE
Sampling rate : 44.1 kHz
Frame rate : 43.066 FPS (1024 SPF)
Compression mode : Lossy
Stream size : 84.3 MiB (15%)
Language : Panjabi
SCREENSHOT
SCREENSHOT
SCREENSHOT

Trackers

Refresh Leechers : Updated January 20, 2018

1. http://ipv4.tracker.harry.lu/announce

2. http://ipv4.tracker.harry.lu:80/announce

3. http://163.172.180.68:80/announce

4. http://t.nyaatracker.com/announce

5. http://tracker.devil-torrents.pl:80/announce

6. http://tracker.devil-torrents.pl/announce

7. http://open.kickasstracker.com/announce

8. http://163.172.180.68/announce

9. http://t.nyaatracker.com:80/announce

10. http://retracker.mgts.by:80/announce

11. http://45.33.11.224/announce

12. http://tracker.torrentyorg.pl:80/announce

13. http://pt.lax.mx:80/announce

14. udp://tracker.coppersurfer.tk:6969/announce

15. udp://tracker.pirateparty.gr:6969/announce

Comments

You must log in to add a comment.

Embed Code

Sharing Widget

Top Movies ( auto generated report )

FILENAME SIZE SEEDS PEERS ADDED UPD
[i] Geostorm (2017) [1080p] [YTS AG] 1.67 GB 4368 1091 1 week 23 hours
[i] Geostorm (2017) [720p] [YTS AG] 812.63 MB 4101 1355 1 week 23 hours
[i] Thor.Ragnarok.2017.HDRip.XviD.AC3-EVO[EtMovies] 1.61 GB 2564 1672 3 days 2 days
[i] Mollys Game 2017 DVDScr XVID AC3 HQ Hive CM8 1.79 GB 2420 691 1 week 1 day
[i] The Man from Earth Holocene (2017) [720p] [YTS AG] 726.46 MB 2189 1099 5 days 5 days
[i] Jigsaw (2017) [720p] [YTS AG] 675.39 MB 2055 1016 1 week 1 day
[i] Last Flag Flying (2017) [720p] [YTS AG] 903.74 MB 1947 1219 5 days 5 days
[i] Jigsaw (2017) [1080p] [YTS AG] 1.4 GB 1907 973 1 week 1 day
[i] Thor.Ragnarok.2017.HDRip.XviD.AC3-EVO 1.6 GB 1860 1338 3 days 2 days
[i] The Man from Earth Holocene (2017) [1080p] [YTS AG] 1.51 GB 1803 773 5 days 5 days