Kill.Switch.2017.BRRip.XviD.AC3-iFT

DOWNLOAD TORRENT DOWNLOAD DOWNLOAD ANONYMOUS

Posted on August 13, 2017 in Movies » Misc , verified torrent

Size: 1.54 GB , Seeds: 16 , Peers: 11 ( Updated August 14, 2017 - Refresh )

* Download via Magnet Link , * To download files you need a Bittorrent Client , * How to download torrents from Bit Torrent Scene?

Scrape History ( seeds + peers )

Internal Files

Kill.Switch.2017.BRRip.XviD.AC3-iFT
Kill.Switch.2017.BRRip.XviD.AC3-iFT.avi   1.52 GB
NFO-iFT.nfo   638 Byte
Sample.avi   16.33 MB

Hash Code

c32f6f5b9edc95a43293145d2b47ff13a83db031

Description

Kill.Switch.2017.BRRip.XviD.AC3-iFT

ImDb: http://www.imdb.com/title/tt5464234

SCREENSHOT

Complete name : Kill.Switch.2017.BRRip.XviD.AC3-iFT.avi
Format : AVI
Format/Info : Audio Video Interleave
Format profile : OpenDML
Format settings : rec
File size : 1.52 GiB
Duration : 1 h 31 min
Overall bit rate : 2 372 kb/s
Writing application : AVI-Mux GUI 1.17.8.3, Feb 16 201019:42:50

Video
ID : 0
Format : MPEG-4 Visual
Format profile : Advanced [email protected]/* */
Format settings, BVOP : 2
Format settings, QPel : No
Format settings, GMC : No warppoints
Format settings, Matrix : Default (H.263)
Muxing mode : Packed bitstream
Codec ID : XVID
Codec ID/Hint : XviD
Duration : 1 h 31 min
Bit rate : 1 918 kb/s
Width : 720 pixels
Height : 304 pixels
Display aspect ratio : 2.35:1
Frame rate : 23.976 (24000/1001) FPS
Color space : YUV
Chroma subsampling : 4:2:0
Bit depth : 8 bits
Scan type : Progressive
Compression mode : Lossy
Bits/(Pixel*Frame) : 0.366
Stream size : 1.23 GiB (81%)
Writing library : XviD 73

Audio
ID : 1
Format : AC-3
Format/Info : Audio Coding 3
Format settings, Endianness : Big
Codec ID : 2000
Duration : 1 h 31 min
Bit rate mode : Constant
Bit rate : 448 kb/s
Channel(s) : 6 channels
Channel positions : Front: L C R, Side: L R, LFE
Sampling rate : 48.0 kHz
Frame rate : 31.250 FPS (1536 spf)
Bit depth : 16 bits
Compression mode : Lossy
Stream size : 294 MiB (19%)
Alignment : Aligned on interleaves
Interleave, duration : 64 ms (1.53 video frames)
Interleave, preload duration : 192 ms
Title : ac3
Service kind : Complete Main

SCREENSHOT

SCREENSHOT

Click To View Screenshot

Click To View Screenshot

Click To View Screenshot

Torrent location

https://www.1337x.to/torrent/2373505/Kill-Switch-2017-BRRip-XviD-AC3-iFT/

Trackers

Refresh Leechers : Updated August 14, 2017

1. http://bigfoot1942.sektori.org:6969/announce

2. http://tracker2.wasabii.com.tw:6969/announce

3. http://bt.artvid.ru:6969/announce

4. http://tracker.opentrackr.org/announce

5. http://announce.torrentsmd.com:6969/announce

6. http://tracker.trackerfix.com/announce

7. http://tracker.opentrackr.org/announce

8. udp://explodie.org:6969/announce

9. udp://mgtracker.org:6969/announce

10. udp://asnet.pw:2710/announce

11. udp://tracker.mgtracker.org:2710/announce

12. udp://tracker4.piratux.com:6969/announce

13. udp://tracker.trackerfix.com:80/announce

14. udp://tracker.pomf.se:80/announce

15. udp://tracker.x4w.co:6969/announce

16. udp://castradio.net:6969/announce

17. udp://ipv4.tracker.harry.lu:80/announce

18. udp://inferno.demonoid.ooo:3389/announce

19. udp://tracker.sktorrent.net:6969/announce

20. udp://tracker.blackunicorn.xyz:6969/announce

21. udp://tracker.internetwarriors.net:1337/announce

22. udp://torrent.gresille.org:80/announce

23. udp://public.popcorn-tracker.org:6969/announce

24. udp://p4p.arenabg.ch:1337/announce

25. udp://glotorrents.pw:6969/announce

26. udp://9.rarbg.to:2710/announce

27. udp://tracker.vanitycore.co:6969/announce

28. udp://eddie4.nl:6969/announce

29. udp://tracker.trackerfix.com:80/announce

30. udp://tracker.pirateparty.gr:6969/announce

31. udp://9.rarbg.me:2710/announce

32. udp://tracker.zer0day.to:1337/announce

33. udp://tracker.opentrackr.org:1337/announce

34. udp://tracker.coppersurfer.tk:6969/announce

35. udp://tracker.leechers-paradise.org:6969/announce

36. udp://tracker.zer0day.to:1337/announce

37. udp://public.popcorn-tracker.org:6969/announce

38. udp://tracker.grepler.com:6969/announce

39. udp://ipv4.tracker.harry.lu:80/announce

40. udp://9.rarbg.to:2710/announce

41. udp://9.rarbg.me:2710/announce

42. udp://p4p.arenabg.com:1337/announce

43. udp://p4p.arenabg.ch:1337/announce

44. udp://tracker.opentrackr.org:1337/announce

45. udp://tracker.leechers-paradise.org:6969/announce

46. udp://eddie4.nl:6969/announce

47. udp://shadowshq.yi.org:6969/announce

48. udp://tracker.pirateparty.gr:6969/announce

49. udp://tracker.coppersurfer.tk:6969/announce

Comments

You must log in to add a comment.

Embed Code

Sharing Widget

Related torrents

FILENAME SIZE SEEDS PEERS ADDED UPD
[i] Kill.Switch.2017.720p.BRRip.x264.AC3-iFT 2.56 GB 82 76 2 days 1 day
[i] Kill.Switch.2017.BRRip.x264.AC3-Manning 1.43 GB 55 18 4 days 3 days
[i] Kill.Switch.2017.720p.BRRip.x264.AC3-Manning 2.43 GB 44 22 4 days 3 days
[i] Kill.Switch.2017.BRRip.XviD.AC3-EVO 1.39 GB 18 8 4 days 3 days

Top Movies ( auto generated report )

FILENAME SIZE SEEDS PEERS ADDED UPD
[i] Kill Switch (2017) [720p] [YTS AG] 677.18 MB 2584 1316 2 days 1 day
[i] Baywatch.2017.720p.WEB-DL.H264.AC3-EVO[EtHD] 3.59 GB 2236 653 1 day 20 hours
[i] Baywatch.2017.WEB-DL.XviD.MP3-FGT [rarbg] 1.47 GB 2176 806 2 days 1 day
[i] The Ottoman Lieutenant (2017) [720p] [YTS AG] 815.1 MB 2057 678 5 days 3 days
[i] The Ottoman Lieutenant (2017) [1080p] [YTS AG] 1.68 GB 1993 742 5 days 2 days
[i] Goon.Last.of.the.Enforcers.2017.WEB-DL.x264-FGT[rarbg] 887.65 MB 1722 953 1 day 21 hours
[i] Baywatch.2017.WEB-DL.x264-FGT [rarbg] 1016.65 MB 1654 782 2 days 1 day
[i] The Sense of an Ending (2017) [720p] [YTS AG] 802.09 MB 1253 611 2 days 2 days
[i] Titanic (1997) [1080p] [YTS AG] 2.97 GB 1036 647 5 days 2 days
[i] Anarchist from Colony (2017) 720p HDRip 750MB Ganool 950.38 MB 1018 402 3 days 2 days