Lupin III - Alcatraz Connection (2001) versione DVD.H264.ita.iCV-MIRCrew

DOWNLOAD TORRENT DOWNLOAD DOWNLOAD ANONYMOUS

Posted by robbyrs3 •376 on September 30, 2017 in Anime » Cartoons , verified torrent

Size: 986.53 MB , Seeds: 5 , Peers: 0 ( Updated October 14, 2017 - Refresh )

* Download via Magnet Link , * To download files you need a Bittorrent Client , * How to download torrents from Bit Torrent Scene?

Scrape History ( seeds + peers )

Internal Files

Lupin III - Alcatraz Connection (2001) versione DVD solo ita
0scDel1.png   315.76 KB
Lupin III - Alcatraz Connection (2001) versione DVD solo ita.mkv   986.22 MB
Lupin III - Alcatraz Connection (2001) versione DVD solo ita.srt   90 Byte
www.icv-crew.org.txt   78 Byte

Hash Code

55314a070b85a9ea21179da282fa30bc463d99bc

Description

Lupin III - Alcatraz Connection (2001) versione DVD.H264.ita.iCV-MIRCrew

SCREENSHOT

SCREENSHOT
NO FOUND ONLY ORIGINAL RELEASE

SCREENSHOT

My release is always in double track audio italian and Original audio
for select it use VLC or dvd player home
not use wmp

Lupin III - Alcatraz Connection (2001) versione DVD solo ita

SCREENSHOT

SCREENSHOT

SCREENSHOT

Autore Monkey Punch
Regia Hideki Tonokatsu
Musiche Yūji Ōno
Studio TMS Entertainment
1ª TV 3 agosto 2001
Aspect ratio 4:3
Durata 90 min
Rete it. Italia Teen Television, Italia 1, Hiro, Italia 2
1ª TV it. 24 dicembre 2003

SCREENSHOT

*****************

SCREENSHOT

Lupin, affiancato dal fido Jigen, tenta di rapinare un casino nella baia di San Francisco controllato dalla mafia. Il furto riesce fino all'intromissione dell'immancabile Zenigata e del suo contatto, il detective Terry; il procuratore distrettuale si congratula con i due, poiché la mafia paga i conti della sua campagna elettorale. Zenigata ignora che dentro alla cassaforte c'era parte di una mappa dei fondali di San Francisco.

SCREENSHOT

In San Fransico, California; Lupin and his gang attempt to find the where abouts of some Gold Bars in a sunken ship that's off coast of Alcatraz Island. But a so called group called the Society Seven want the gold bars for their own reasons. The Society Seven is made up of 7 dangerous criminals.

SCREENSHOT

SCREENSHOT
SCREENSHOT
SCREENSHOT



SCREENSHOT


[spoiler]
General
Unique ID : 155445518971302974135516129535534066972 (0x74F1B7CCEE99ADB2BF47470DA8146D1C)
Complete name : Lupin III - Alcatraz Connection (2001) versione DVD solo ita.mkv
Format : Matroska
Format version : Version 2
File size : 986 MiB
Duration : 1h 28mn
Overall bit rate : 1 563 Kbps
Encoded date : UTC 2017-09-25T15:13:02Z
Writing application : HandBrake 0.10.5 2016021100
Writing library : Lavf55.12.0

Video
ID : 1
Format : AVC
Format/Info : Advanced Video Codec
Format profile : Main@L4.0
Format settings, CABAC : Yes
Format settings, ReFrames : 4 frames
Codec ID : V_MPEG4/ISO/AVC
Duration : 1h 28mn
Bit rate : 1 290 Kbps
Width : 720 pixels
Height : 528 pixels
Display aspect ratio : 4:3
Frame rate mode : Variable
Frame rate : 25.000 fps
Color space : YUV
Chroma subsampling : 4:2:0
Bit depth : 8 bits
Scan type : Progressive
Bits/(Pixel*Frame) : 0.136
Stream size : 805 MiB (82%)
Writing library : x264 core 142 r2479 dd79a61
Encoding settings : cabac=1 / ref=1 / deblock=1:1:1 / analyse=0x1:0x111 / me=hex / subme=2 / psy=1 / psy_rd=0.40:0.00 / mixed_ref=0 / me_range=16 / chroma_me=1 / trellis=0 / 8x8dct=0 / cqm=0 / deadzone=21,11 / fast_pskip=1 / chroma_qp_offset=0 / threads=3 / lookahead_threads=1 / sliced_threads=0 / nr=0 / decimate=1 / interlaced=0 / bluray_compat=0 / constrained_intra=0 / bframes=5 / b_pyramid=2 / b_adapt=1 / b_bias=0 / direct=1 / weightb=1 / open_gop=0 / weightp=1 / keyint=250 / keyint_min=25 / scenecut=40 / intra_refresh=0 / rc_lookahead=10 / rc=abr / mbtree=1 / bitrate=1290 / ratetol=1.0 / qcomp=0.60 / qpmin=0 / qpmax=69 / qpstep=4 / vbv_maxrate=20000 / vbv_bufsize=25000 / nal_hrd=none / filler=0 / ip_ratio=1.40 / aq=1:0.60
Default : Yes
Forced : No
Color primaries : BT.470-6 System B, BT.470-6 System G, BT.601-6 625, BT.1358 625, BT.1700 625 PAL, BT.1700 625 SECAM
Transfer characteristics : BT.709-5, BT.1361
Matrix coefficients : BT.601-6 525, BT.1358 525, BT.1700 NTSC, SMPTE 170M

Audio
ID : 2
Format : AC-3
Format/Info : Audio Coding 3
Mode extension : CM (complete main)
Codec ID : A_AC3
Duration : 1h 28mn
Bit rate mode : Constant
Bit rate : 256 Kbps
Channel(s) : 2 channels
Channel positions : Front: L R
Sampling rate : 48.0 KHz
Bit depth : 16 bits
Compression mode : Lossy
Delay relative to video : 1mn 5s
Stream size : 162 MiB (16%)
Title : Stereo
Language : Italian
Default : Yes
Forced : No

Menu
00:00:00.000 : :Chapter 1
00:05:12.600 : :Chapter 2
00:08:35.400 : :Chapter 3
00:14:10.280 : :Chapter 4
00:20:03.360 : :Chapter 5
00:32:24.880 : :Chapter 6
00:45:10.840 : :Chapter 7
00:57:45.880 : :Chapter 8
01:06:17.580 : :Chapter 9
01:20:16.340 : :Chapter 10



[/spoiler]

Trackers

Refresh Leechers : Updated October 14, 2017

1. udp://tracker.coppersurfer.tk:6969/announce

2. udp://tracker.opentrackr.org:1337/announce

3. udp://tracker.leechers-paradise.org:6969/announce

4. udp://9.rarbg.com:2710/announce

5. udp://9.rarbg.to:2710/announce

6. udp://9.rarbg.me:2710/announce

7. udp://glotorrents.pw:6969/announce

8. udp://tracker.openbittorrent.com:80/announce

9. udp://tracker.pubt.net:2710/announce

10. udp://tracker.ilibr.org:6969/announce

11. udp://tracker.ilibr.org:80/announce

12. udp://zer0day.to:1337/announce

13. udp://tracker.zer0day.to:1337/announce

14. udp://p4p.arenabg.com:1337/announce

15. udp://p4p.arenabg.ch:1337/announce

16. udp://explodie.org:6969/announce

17. udp://eddie4.nl:6969/announce

Comments

You must log in to add a comment.

Embed Code

Sharing Widget

Related torrents

FILENAME SIZE SEEDS PEERS ADDED UPD
[i] Lupin 3rd - Alcatraz Connection, [H264 - Ita Ac3] TNT Village
posted by markus03 in Anime - Cartoons
1.14 GB 0 2 1 year 1 month