Your IP Address is . Location is Your ISP and Government can track your torrent activity! Hide your IP with a VPN!

Lupin III - La principessa della brezza - La città nascosta nel cielo (2013).H264.ita.Jpn.iCV-MIRCrew

DOWNLOAD TORRENT DOWNLOAD DOWNLOAD ANONYMOUS

Posted by robbyrs3 •400 on September 30, 2017 in Anime » Cartoons , verified torrent

Size: 1.07 GB , Seeds: 4 , Peers: 1 ( Updated December 3, 2017 - Refresh )

* Download via Magnet Link , * To download files you need a Bittorrent Client , * How to download torrents from Bit Torrent Scene?

Scrape History ( seeds + peers )

Internal Files

Lupin III - La principessa della brezza - La città nascosta nel cielo.H264.ita.jpn.iCV-MIRCrew
0scDel1.png   315.76 KB
Lupin III - La principessa della brezza - La città nascosta nel cielo.H264.ita.jpn.iCV-MIRCrew.mkv   1.07 GB
Lupin III - La principessa della brezza - La città nascosta nel cielo.H264.ita.jpn.iCV-MIRCrew.srt   90 Byte
www.icv-crew.org.txt   78 Byte

Hash Code

48aab464dc24d83cfec3561e080110eb58f5ba74

Description

Lupin III - La principessa della brezza - La città nascosta nel cielo (2013).H264.ita.Jpn.iCV-MIRCrew

SCREENSHOT

SCREENSHOT
NO FOUND ONLY ORIGINAL RELEASE

SCREENSHOT

My release is always in double track audio italian and Original audio
for select it use VLC or dvd player home
not use wmp

Lupin III - La principessa della brezza - La città nascosta nel cielo

SCREENSHOT

SCREENSHOT

SCREENSHOT

ルパン三世 princess of the breeze 〜隠された空中都市〜
(Rupan Sansei - princess of the breeze ~Kakusareta kūchū toshi~)
Special TV anime
Autore Monkey Punch (manga)
Regia Takaomi Kanasaki
Sceneggiatura Katsurō Hidaka, Shigeru Morita, Touko Machida
Char. design Takahiro Kagami
Musiche Yūji Ōno
Studio TMS Entertainment
Rete Nippon Television
1ª TV 15 novembre 2013
Aspect ratio 16:9
Durata 91 min
Rete it. Italia 1
1ª TV it. 8 ottobre 2016
Dialoghi it. Andrea De Cunto
Studio dopp. it. Logos
Dir. dopp. it. Alessio Pelicella

SCREENSHOT

*****************

Doppiatori:

Arsenio Lupin III Kan'ichi Kurita Stefano Onofri
Daisuke Jigen Kiyoshi Kobayashi Alessandro D'Errico
Goemon Ishikawa XIII Daisuke Namikawa Antonio Palumbo
Fujiko Mine Miyuki Sawashiro Alessandra Korompay
Ispettore Zenigata Kōichi Yamadera Rodolfo Bianchi
Utika (Yutika) Yui Ishikawa
Chika Anzai (da bambina) Gaia Bolognesi
Rasha Kanako Miyamoto
Marika Minase (da bambina) Agnese Marteddu
Sion Adel Bikrobute (Shion Adel Bikrobute) Hiroshi Kamiya Emanuele Ruzza
Koshal Van Shutelvalt Taiten Kusunoki Pierluigi Astore
Jeva (Ziva) Takayuki Sugō Fabrizio Temperini
Carmila (Carmilla) Akeno Watanabe Perla Liberatori
Bernard Jun'ichi Suwabe Marco Vivio
Rham Tomoko Kaneda Paola Majano
Mister G Shigeru Chiba Massimiliano Plinio
Vilar Jin Yamanoi Fabrizio Pucci

SCREENSHOT

Lupin si reca con la sua banda in Europa per trovare i quattro tesori nazionali di Shahalta, una piccola nazione indipendente che sorge nel cuore delle Alpi italiane, e che ha fondato la sua prosperità economica sulla tecnologia per la costruzione di avveniristiche aeronavi alimentate da un particolare tipo di elio

SCREENSHOT

After a chaotic heist, Lupin and Jigen find themselves becoming caretakers of a baby boy, while a young sky pirate called Yutika is after their loot. Yutika is an inhabitant of the ...

SCREENSHOT

SCREENSHOT
SCREENSHOT
SCREENSHOT
SCREENSHOT



SCREENSHOT


[spoiler]
General
Unique ID : 212214502300851161071905880424263357265 (0x9FA706C62D5DF6DD881128FA438E9351)
Complete name : Lupin III - La principessa della brezza - La città nascosta nel cielo.H264.ita.jpn.mkv
Format : Matroska
Format version : Version 2
File size : 1.07 GiB
Duration : 1h 30mn
Overall bit rate : 1 682 Kbps
Encoded date : UTC 2017-09-21T18:42:25Z
Writing application : HandBrake 0.10.5 2016021100
Writing library : Lavf55.12.0

Video
ID : 1
Format : AVC
Format/Info : Advanced Video Codec
Format profile : Main@L4.0
Format settings, CABAC : Yes
Format settings, ReFrames : 4 frames
Codec ID : V_MPEG4/ISO/AVC
Duration : 1h 30mn
Bit rate : 1 290 Kbps
Width : 720 pixels
Height : 404 pixels
Display aspect ratio : 16:9
Frame rate mode : Variable
Frame rate : 23.976 fps
Color space : YUV
Chroma subsampling : 4:2:0
Bit depth : 8 bits
Scan type : Progressive
Bits/(Pixel*Frame) : 0.185
Stream size : 820 MiB (75%)
Writing library : x264 core 142 r2479 dd79a61
Encoding settings : cabac=1 / ref=1 / deblock=1:1:1 / analyse=0x1:0x111 / me=hex / subme=2 / psy=1 / psy_rd=0.40:0.00 / mixed_ref=0 / me_range=16 / chroma_me=1 / trellis=0 / 8x8dct=0 / cqm=0 / deadzone=21,11 / fast_pskip=1 / chroma_qp_offset=0 / threads=12 / lookahead_threads=3 / sliced_threads=0 / nr=0 / decimate=1 / interlaced=0 / bluray_compat=0 / constrained_intra=0 / bframes=5 / b_pyramid=2 / b_adapt=1 / b_bias=0 / direct=1 / weightb=1 / open_gop=0 / weightp=1 / keyint=240 / keyint_min=24 / scenecut=40 / intra_refresh=0 / rc_lookahead=10 / rc=abr / mbtree=1 / bitrate=1290 / ratetol=1.0 / qcomp=0.60 / qpmin=0 / qpmax=69 / qpstep=4 / vbv_maxrate=20000 / vbv_bufsize=25000 / nal_hrd=none / filler=0 / ip_ratio=1.40 / aq=1:0.60
Default : Yes
Forced : No
Color primaries : BT.709-5, BT.1361, IEC 61966-2-4, SMPTE RP177
Transfer characteristics : BT.709-5, BT.1361
Matrix coefficients : BT.709-5, BT.1361, IEC 61966-2-4 709, SMPTE RP177

Audio #1
ID : 2
Format : AC-3
Format/Info : Audio Coding 3
Mode extension : CM (complete main)
Codec ID : A_AC3
Duration : 1h 30mn
Bit rate mode : Constant
Bit rate : 192 Kbps
Channel(s) : 2 channels
Channel positions : Front: L R
Sampling rate : 48.0 KHz
Bit depth : 16 bits
Compression mode : Lossy
Delay relative to video : 1mn 5s
Stream size : 125 MiB (11%)
Title : Stereo
Language : Italian
Default : Yes
Forced : No

Audio #2
ID : 3
Format : AC-3
Format/Info : Audio Coding 3
Mode extension : CM (complete main)
Codec ID : A_AC3
Duration : 1h 30mn
Bit rate mode : Constant
Bit rate : 192 Kbps
Channel(s) : 2 channels
Channel positions : Front: L R
Sampling rate : 48.0 KHz
Bit depth : 16 bits
Compression mode : Lossy
Delay relative to video : 1mn 5s
Stream size : 125 MiB (11%)
Title : Stereo
Language : Japanese
Default : No
Forced : No

Menu
00:00:00.000 : :00:00:00.000
00:05:03.094 : :00:05:03.013
00:11:42.535 : :00:11:42.455
00:16:00.125 : :00:16:00.047
00:31:15.748 : :00:31:15.675
00:38:19.005 : :00:38:18.933
00:46:55.312 : :00:46:55.243
00:53:44.346 : :00:53:44.279
00:59:50.253 : :00:59:50.188
01:10:24.220 : :01:10:24.158
01:17:34.233 : :01:17:34.173
01:24:19.179 : :01:24:19.121
01:28:24.132 : :01:28:24.075




[/spoiler]

Trackers

Refresh Leechers : Updated December 3, 2017

1. udp://tracker.coppersurfer.tk:6969/announce

2. udp://tracker.opentrackr.org:1337/announce

3. udp://tracker.leechers-paradise.org:6969/announce

4. udp://9.rarbg.com:2710/announce

5. udp://9.rarbg.to:2710/announce

6. udp://9.rarbg.me:2710/announce

7. udp://glotorrents.pw:6969/announce

8. udp://tracker.openbittorrent.com:80/announce

9. udp://tracker.pubt.net:2710/announce

10. udp://tracker.ilibr.org:6969/announce

11. udp://tracker.ilibr.org:80/announce

12. udp://zer0day.to:1337/announce

13. udp://tracker.zer0day.to:1337/announce

14. udp://p4p.arenabg.com:1337/announce

15. udp://p4p.arenabg.ch:1337/announce

16. udp://explodie.org:6969/announce

17. udp://eddie4.nl:6969/announce

Comments

You must log in to add a comment.

Embed Code

Sharing Widget