Lupin III Movie - Le Profezie Di Nostradamus (1995).H264.2xita.Jpn.Sub.ita.iCV-MIRCrew

DOWNLOAD TORRENT DOWNLOAD DOWNLOAD ANONYMOUS

Posted by robbyrs3 •388 on October 14, 2017 in Anime » Cartoons , verified torrent

Size: 1.47 GB , Seeds: 4 , Peers: 1 ( Updated November 17, 2017 - Refresh )

* Download via Magnet Link , * To download files you need a Bittorrent Client , * How to download torrents from Bit Torrent Scene?

Scrape History ( seeds + peers )

Internal Files

Lupin III - Le Profezie Di Nostradamus (1995).H264.ita.ita.jpn.sub.Ita.iCV-MIRCrew
Lupin III Movie - Le Profezie Di Nostradamus (1995).H264.ita.ita.jpn.sub.Ita.iCV-MIRCrew.ita.srt   69.11 KB
Lupin III Movie - Le Profezie Di Nostradamus (1995).H264.ita.ita.jpn.sub.Ita.iCV-MIRCrew.mkv   1.47 GB

Hash Code

06ec2788e8ac51440ddfafec920cdc4a34c3e650

Description

Lupin III Movie - Le Profezie Di Nostradamus (1995).H264.2xita.Jpn.Sub.ita.iCV-MIRCrew

SCREENSHOT

SCREENSHOT
NO FOUND ONLY ORIGINAL RELEASE

SCREENSHOT

My release is always in double track audio italian and Original audio
for select it use VLC or dvd player home
not use wmp

Lupin III Movie - Le Profezie Di Nostradamus (1995)


Presenti 2 tracce audio ITA vari doppiaggi

SCREENSHOT

SCREENSHOT

SCREENSHOT

Titolo originale Rupan Sansei - Kutabare! Nostradamus
Lingua originale giapponese
Paese di produzione Giappone
Anno 1995
Durata 100 min
Rapporto 1.85:1
Regia Shun'ya Itō, Takeshi Shirato
Soggetto Monkey Punch
Sceneggiatura Hiroshi Kashiwabara, Shun'ya Itō, Takeshi Shirato, Kazuhide Tomonaga, Nobuo Tomizawa
Casa di produzione TMS Entertainment
Musiche Yūji Ōno

SCREENSHOT

*****************

Doppiatori italiani
Edizione televisiva

Roberto Del Giudice: Arsenio Lupin III
Sandro Pellegrini: Daisuke Jigen
Alessandra Korompay: Fujiko Mine
Antonio Palumbo: Goemon Ishikawa XIII
Rodolfo Bianchi: Koichi Zenigata

Edizione home video (semi ridoppiaggio)

Roberto Del Giudice: Arsenio Lupin III
Sandro Pellegrini: Daisuke Jigen
Alessandra Korompay: Fujiko Mine
Antonio Palumbo: Goemon Ishikawa XIII
Enzo Consoli: Koichi Zenigata

SCREENSHOT

Lupin III vuole impadronirsi uno dei libri delle Profezie di Nostradamus, che vale 50.000.000$, e si ritrova prima sull'isola Shokeijima (処刑島? lett. "Isola dell'Esecuzione") e poi in Amazzonia. Per riuscirci, dovrà confrontarsi coi seguaci di una setta segreta e con il proprietario del libro

SCREENSHOT

Lupin must rescue a young girl from a mysterious doomsday cult, who wants a book of prophecies hidden by the girl's father.

SCREENSHOT

SCREENSHOT
SCREENSHOT
SCREENSHOT



SCREENSHOT


[spoiler]
General
Unique ID : 179957821084586315826920235297920619367 (0x87629D9A4738449298776003ABDD9367)
Complete name : Lupin III Movie - Le Profezie Di Nostradamus (1995).H264.ita.ita.jpn.sub.Ita.iCV-MIRCrew.mkv
Format : Matroska
Format version : Version 2
File size : 1.47 GiB
Duration : 1h 37mn
Overall bit rate : 2 145 Kbps
Movie name : icv-crew
Encoded date : UTC 2017-08-20T10:30:23Z
Writing application : mkvmerge v5.4.0 ('Piper') built on Mar 10 2012 13:34:39
Writing library : Lavf55.12.0

Video
ID : 1
Format : AVC
Format/Info : Advanced Video Codec
Format profile : Main@L4.0
Format settings, CABAC : Yes
Format settings, ReFrames : 4 frames
Muxing mode : Header stripping
Codec ID : V_MPEG4/ISO/AVC
Duration : 1h 37mn
Bit rate : 1 290 Kbps
Width : 720 pixels
Height : 404 pixels
Display aspect ratio : 16:9
Frame rate mode : Variable
Frame rate : 23.976 fps
Color space : YUV
Chroma subsampling : 4:2:0
Bit depth : 8 bits
Scan type : Progressive
Bits/(Pixel*Frame) : 0.185
Stream size : 889 MiB (59%)
Title : Lupin III Movie - Le Profezie Di Nostradamus (1995).H264.ita.ita.jpn.sub.Ita.iCV-MIRCrew
Writing library : x264 core 142 r2479 dd79a61
Encoding settings : cabac=1 / ref=1 / deblock=1:1:1 / analyse=0x1:0x111 / me=hex / subme=2 / psy=1 / psy_rd=0.40:0.00 / mixed_ref=0 / me_range=16 / chroma_me=1 / trellis=0 / 8x8dct=0 / cqm=0 / deadzone=21,11 / fast_pskip=1 / chroma_qp_offset=0 / threads=12 / lookahead_threads=3 / sliced_threads=0 / nr=0 / decimate=1 / interlaced=0 / bluray_compat=0 / constrained_intra=0 / bframes=5 / b_pyramid=2 / b_adapt=1 / b_bias=0 / direct=1 / weightb=1 / open_gop=0 / weightp=1 / keyint=240 / keyint_min=24 / scenecut=40 / intra_refresh=0 / rc_lookahead=10 / rc=abr / mbtree=1 / bitrate=1290 / ratetol=1.0 / qcomp=0.60 / qpmin=0 / qpmax=69 / qpstep=4 / vbv_maxrate=20000 / vbv_bufsize=25000 / nal_hrd=none / filler=0 / ip_ratio=1.40 / aq=1:0.60
Language : Italian
Default : Yes
Forced : No
Color primaries : BT.709-5, BT.1361, IEC 61966-2-4, SMPTE RP177
Transfer characteristics : BT.709-5, BT.1361
Matrix coefficients : BT.709-5, BT.1361, IEC 61966-2-4 709, SMPTE RP177

Audio #1
ID : 2
Format : AC-3
Format/Info : Audio Coding 3
Mode extension : CM (complete main)
Muxing mode : Header stripping
Codec ID : A_AC3
Duration : 1h 37mn
Bit rate mode : Constant
Bit rate : 448 Kbps
Channel(s) : 6 channels
Channel positions : Front: L C R, Side: L R, LFE
Sampling rate : 48.0 KHz
Bit depth : 16 bits
Compression mode : Lossy
Delay relative to video : -5ms
Stream size : 314 MiB (21%)
Title : Surround
Language : Italian
Default : Yes
Forced : No

Audio #2
ID : 3
Format : AC-3
Format/Info : Audio Coding 3
Mode extension : CM (complete main)
Muxing mode : Header stripping
Codec ID : A_AC3
Duration : 1h 37mn
Bit rate mode : Constant
Bit rate : 192 Kbps
Channel(s) : 2 channels
Channel positions : Front: L R
Sampling rate : 48.0 KHz
Bit depth : 16 bits
Compression mode : Lossy
Delay relative to video : -5ms
Stream size : 134 MiB (9%)
Title : Stereo
Language : Italian
Default : No
Forced : No

Audio #3
ID : 4
Format : AC-3
Format/Info : Audio Coding 3
Mode extension : CM (complete main)
Muxing mode : Header stripping
Codec ID : A_AC3
Duration : 1h 37mn
Bit rate mode : Constant
Bit rate : 192 Kbps
Channel(s) : 2 channels
Channel positions : Front: L R
Sampling rate : 48.0 KHz
Bit depth : 16 bits
Compression mode : Lossy
Delay relative to video : -5ms
Stream size : 134 MiB (9%)
Title : Stereo
Language : Japanese
Default : No
Forced : No

Menu
00:00:00.000 : :Capitolo 01
00:02:16.428 : :Capitolo 02
00:03:14.444 : :Capitolo 03
00:08:19.207 : :Capitolo 04
00:13:42.279 : :Capitolo 05
00:14:39.837 : :Capitolo 06
00:22:22.257 : :Capitolo 07
00:32:55.640 : :Capitolo 08
00:42:06.524 : :Capitolo 09
00:47:15.290 : :Capitolo 10
00:54:55.542 : :Capitolo 11
01:00:21.451 : :Capitolo 12
01:08:06.415 : :Capitolo 13
01:12:22.004 : :Capitolo 14
01:21:04.317 : :Capitolo 15
01:34:38.130 : :Capitolo 16



[/spoiler]

Trackers

Refresh Leechers : Updated November 17, 2017

1. udp://tracker.coppersurfer.tk:6969/announce

2. udp://tracker.opentrackr.org:1337/announce

3. udp://tracker.leechers-paradise.org:6969/announce

4. udp://glotorrents.pw:6969/announce

5. udp://p4p.arenabg.com:1337/announce

6. udp://p4p.arenabg.ch:1337/announce

7. udp://eddie4.nl:6969/announce

Comments

You must log in to add a comment.

Embed Code

Sharing Widget

Related torrents

FILENAME SIZE SEEDS PEERS ADDED UPD
[i] Lupin Terzo vs. Detective Conan - The Movie (2013).DVDrip.XviD - Italian Japan.Ac3.5.1.Sub.ita.MIRCrew
posted by robbyrs in Movies - Animation
1.69 GB 5 1 2 years 3 months
[i] [Ohys-Raws] Lupin III VS Detective Conan The Movie (BD 1280x720 x264 AACx2).mp4 1.82 GB 2 0 2 years 2 months
[i] [DeadFish] Lupin III vs. Detective Conan - Movie [BD][720p][AAC].mp4 1.05 GB 1 0 3 years 4 months
[i] Lupin III vs Detective Conan - The Movie [M-L][1080p][3941F580].mkv 3.36 GB 1 0 3 years 4 months
[i] [DeadFish] Lupin the IIIrd: Jigen Daisuke no Bohyou v2 - Movie [BD][720p][MP4][AAC] 1.25 GB 1 1 2 years 3 months
[i] [LOLLIPOP & Mr. Genius] Lupin III vs Detective Conan The Second Movie (Trailer) [720p] 3.32 MB 0 0 4 years 5 months
[i] [LOLLIPOP & Mr. Genius] Lupin III vs Detective Conan The Second Movie (Trailer) [720p] 3.32 MB 0 0 4 years 5 months
[i] [LOLLIPOP] Lupin III vs. Detective Conan The Second Movie (Trailer) VOSTFr [720p][MP4] 8.61 MB 0 0 4 years 5 months
[i] [AoT] Lupin III vs Detective Conan The Movie [720p] [Spanish sub] 1.5 GB 0 0 3 years 4 months
[i] [SOFCJ-Raws] Lupin III vs Detective Conan The Movie (DVD 848x480 x264 AAC).mp4 1.05 GB 0 0 3 years 5 months

Top Anime ( auto generated report )

FILENAME SIZE SEEDS PEERS ADDED UPD
[i] Card Captor Sakura S02e15-21[BDmux 1080p - H264 - Ita Jap Ac3 - Cartelli SoftSub Ita] 6.15 GB 13 5 5 days 22 hours
[i] Card Captor Sakura S02e22-28 [BDmux 1080p - H264 - Ita Jap Ac3 - Cartelli SoftSub Ita] 5.73 GB 13 5 1 day 10 hours