Oceans 8 2018 720p HD-TS x264 AAC [MW]

Posted by moviefreak •2029 on June 13, 2018 in Movies » Action , verified torrent

Size: 985.67 MB , Seeds: 10 , Peers: 11 ( Updated July 17, 2018 - Refresh )

* Download via Magnet Link , * To download files you need a Bittorrent Client , * How to download torrents from Bit Torrent Scene?

Scrape History ( seeds + peers )

Internal Files

Oceans 8 2018 720p HD-TS x264 AAC [MW]
Oceans 8 2018 720p HD-TS x264 AAC [MW].mkv   985.67 MB

Hash Code

f7cca3bbba7de00b8f8d0aa24520937e3fc9be79

Description


SCREENSHOT


General
Format : Matroska
Format version : Version 4 / Version 2
File size : 986 MiB
Duration : 1 h 43 min
Overall bit rate : 1 333 kb/s

Video
ID : 1
Format : AVC
Format/Info : Advanced Video Codec
Format profile : High@L4.1
Format settings : CABAC / 4 Ref Frames
Format settings, CABAC : Yes
Format settings, RefFrames : 4 frames
Codec ID : V_MPEG4/ISO/AVC
Duration : 1 h 43 min
Bit rate : 1 200 kb/s
Width : 1 280 pixels
Height : 536 pixels
Display aspect ratio : 2.40:1
Frame rate mode : Constant
Frame rate : 30.000 FPS
Color space : YUV
Chroma subsampling : 4:2:0
Bit depth : 8 bits
Scan type : Progressive
Bits/(Pixel*Frame) : 0.058
Stream size : 889 MiB (90%)
Writing library : x264 core 155 r2901 7d0ff22
Default : Yes
Forced : No

Audio
ID : 2
Format : AAC
Format/Info : Advanced Audio Codec
Format profile : LC
Codec ID : A_AAC-2
Duration : 1 h 43 min
Bit rate : 129 kb/s
Channel(s) : 2 channels
Channel positions : Front: L R
Sampling rate : 48.0 kHz
Frame rate : 46.875 FPS (1024 SPF)
Compression mode : Lossy
Stream size : 95.2 MiB (10%)
Language : English
Default : Yes
Forced : No





https://pichub.site/image/Y7RDh
https://pichub.site/image/Y7Dnr
https://pichub.site/image/Y77tQ
https://pichub.site/image/Y7dYk
https://pichub.site/image/Y7cjd

Trackers

Refresh Leechers : Updated July 17, 2018

1. udp://tracker.coppersurfer.tk:6969/announce

2. udp://tracker.pirateparty.gr:6969/announce

3. udp://tracker.coppersurfer.tk:6969/announce

4. udp://tracker.leechers-paradise.org:6969/announce

5. udp://eddie4.nl:6969/announce

6. udp://tracker.tiny-vps.com:6969/announce

7. udp://9.rarbg.me:2720/announce

8. udp://9.rarbg.to:2740/announce

9. udp://public.popcorn-tracker.org:6969/announce

10. udp://open.stealth.si:80/announce

11. udp://tracker.vanitycore.co:6969/announce

12. udp://tracker.opentrackr.org:1337/announce

13. udp://bt.firebit.co.uk:6969/announce

14. udp://shadowshq.yi.org:6969/announce

Comments

You must log in to add a comment.

Embed Code

Sharing Widget

Related torrents

FILENAME SIZE SEEDS PEERS ADDED UPD
[i] Oceans 8 (2018 ) 720p HD-TS X264-CPG mkv [MOVCR] mp4
posted by Tamilgun in Movies - Action
910.04 MB 31 10 2 months 4 weeks
[i] Oceans 8 2018 720p HD-TS X264 ENG LLG
posted by LifeLongg in Movies - Action
1.02 GB 25 8 2 months 3 weeks
[i] Oceans 8 2018 720p HD-TS X264 MP3 LLG
posted by LifeLongg in Movies - Action
1.21 GB 14 4 2 months 4 weeks
[i] Oceans 8 2018 720p HDTS X264 CPG 2.3 GB 12 37 2 months 2 months
[i] Oceans 8 2018 720p HD-TS X264-CPG 2.3 GB 0 0 2 months 2 months
[i] Oceans 8 2018 720p TS HEVC x265-RMTeam 539.8 MB 0 0 2 months 2 months

Top Movies ( auto generated report )

FILENAME SIZE SEEDS PEERS ADDED UPD
[i] The Equalizer 2 2018 HDTS XViD AC3-ETRG 1.28 GB 1024 1019 1 day 12 hours
[i] The Meg 2018 HDCAM XViD AC3-ETRG 1.26 GB 806 669 3 days 3 days
[i] TAG 2018 BRRip XViD-ETRG 705.11 MB 690 375 3 days 2 days
[i] Skyscraper.2018.HC.HDRip.XviD.AC3-EVO 1.36 GB 603 204 4 days 1 day
[i] Skyscraper.2018.720p.HC.HDRip.X264.AC3-EVO 2.53 GB 456 207 4 days 3 days
[i] Love at Sea 2018 Hallmark 720p HDTV X264 Solar 1.08 GB 283 93 2 days 1 day
[i] Wind River - I segreti di Wind River (2017).720p.H264.italian.english.Ac3-5.1.sub.ita-MIRCrew 2.05 GB 263 138 1 day 17 hours
[i] Skyscraper 2018 720p HC HDRip x264 Dual Audio [Hindi - English] [MW] 916.04 MB 241 195 4 days 3 days
[i] 2047 - Virtual Revolution 720p h264 ita eng sub ita fre-MIRCrew 1.8 GB 231 176 3 days 2 days
[i] Slenderman 2018 HDCAM XViD AC3-ETRG 1.17 GB 226 183 3 days 2 days