Oceans 8 2018 720p HD-TS X264 ENG LLG

Posted by LifeLongg •1223 on June 14, 2018 in Movies » Action , verified torrent

Size: 1.02 GB , Seeds: 25 , Peers: 8 ( Updated July 18, 2018 - Refresh )

* Download via Magnet Link , * To download files you need a Bittorrent Client , * How to download torrents from Bit Torrent Scene?

Scrape History ( seeds + peers )

Internal Files

Oceans.8.2018.720p.HD-TS.X264.ENG.LLG
Sample.ts   10.43 MB
Sample 2.ts   45.33 MB
Oceans.8.2018.720p.HD-TS.X264.ENG.LLG.mp4   991.25 MB

Hash Code

27fff2cedb680a0dd22c97b6fcbfa76bdc53f10e

Description

******************************Thumbnail:**********************

SCREENSHOT

******************************Screenshots:********************

Screenshot 1

Screenshot 2

Screenshot 3

Screenshot 4

Screenshot 5

Screenshot 6

Screenshot 7

Screenshot 8

Screenshot 9

Screenshot 0

**************************************************************

Complete name : Oceans.8.2018.720p.HD-TS.X264.ENG.LLG.mp4
Format : MPEG-4
Format profile : Base Media
Codec ID : isom (isom/iso2/avc1/mp41)
File size : 991 MiB
Duration : 1 h 43 min
Overall bit rate : 1 336 kb/s
Writing application : Lavf57.56.101

Video
ID : 1
Format : AVC
Format/Info : Advanced Video Codec
Format profile : High@L3.1
Format settings : CABAC / 4 Ref Frames
Format settings, CABAC : Yes
Format settings, RefFrames : 4 frames
Codec ID : avc1
Codec ID/Info : Advanced Video Coding
Duration : 1 h 43 min
Bit rate : 1 200 kb/s
Width : 1 280 pixels
Height : 536 pixels
Display aspect ratio : 2.40:1
Frame rate mode : Constant
Frame rate : 23.976 (23976/1000) FPS
Color space : YUV
Chroma subsampling : 4:2:0
Bit depth : 8 bits
Scan type : Progressive
Bits/(Pixel*Frame) : 0.073
Stream size : 891 MiB (90%)


Audio
ID : 2
Format : MPEG Audio
Format version : Version 1
Format profile : Layer 3
Format settings : Joint stereo / MS Stereo
Codec ID : mp4a-6B
Duration : 1 h 43 min
Bit rate mode : Constant
Bit rate : 128 kb/s
Channel(s) : 2 channels
Sampling rate : 44.1 kHz
Compression mode : Lossy
Stream size : 94.9 MiB (10%)
Writing library : LAME3.99.5
Default : Yes
Alternate group : 1

Trackers

Refresh Leechers : Updated July 18, 2018

1. udp://tracker.openbittorrent.com:80/announce

2. udp://tracker.opentrackr.org:1337/announce

Comments

You must log in to add a comment.

Embed Code

Sharing Widget

Related torrents

FILENAME SIZE SEEDS PEERS ADDED UPD
[i] Oceans 8 (2018 ) 720p HD-TS X264-CPG mkv [MOVCR] mp4
posted by Tamilgun in Movies - Action
910.04 MB 31 10 2 months 4 weeks
[i] Oceans 8 2018 720p HD-TS X264 MP3 LLG
posted by LifeLongg in Movies - Action
1.21 GB 14 4 2 months 4 weeks
[i] Oceans 8 2018 720p HDTS X264 CPG 2.3 GB 12 37 2 months 2 months
[i] Oceans 8 2018 720p HD-TS x264 AAC [MW]
posted by moviefreak in Movies - Action
985.67 MB 10 11 2 months 4 weeks
[i] Oceans 8 2018 720p HD-TS X264-CPG 2.3 GB 0 0 2 months 2 months
[i] Oceans 8 2018 720p TS HEVC x265-RMTeam 539.8 MB 0 0 2 months 2 months

Top Movies ( auto generated report )

FILENAME SIZE SEEDS PEERS ADDED UPD
[i] The Equalizer 2 2018 HDTS XViD AC3-ETRG 1.28 GB 1024 1019 1 day 12 hours
[i] The Meg 2018 HDCAM XViD AC3-ETRG 1.26 GB 806 669 3 days 3 days
[i] TAG 2018 BRRip XViD-ETRG 705.11 MB 690 375 3 days 2 days
[i] Skyscraper.2018.HC.HDRip.XviD.AC3-EVO 1.36 GB 603 204 4 days 1 day
[i] Skyscraper.2018.720p.HC.HDRip.X264.AC3-EVO 2.53 GB 456 207 4 days 3 days
[i] Love at Sea 2018 Hallmark 720p HDTV X264 Solar 1.08 GB 283 93 2 days 1 day
[i] Wind River - I segreti di Wind River (2017).720p.H264.italian.english.Ac3-5.1.sub.ita-MIRCrew 2.05 GB 263 138 1 day 17 hours
[i] Skyscraper 2018 720p HC HDRip x264 Dual Audio [Hindi - English] [MW] 916.04 MB 241 195 4 days 3 days
[i] 2047 - Virtual Revolution 720p h264 ita eng sub ita fre-MIRCrew 1.8 GB 231 176 3 days 2 days
[i] Slenderman 2018 HDCAM XViD AC3-ETRG 1.17 GB 226 183 3 days 2 days