Rampage 2018 720p NEW HDCAM X264 HQMic LLG

Posted by LifeLongg •984 on April 16, 2018 in Movies » Action , verified torrent

Size: 1.16 GB , Seeds: 8 , Peers: 3 ( Updated June 19, 2018 - Refresh )

* Download via Magnet Link , * To download files you need a Bittorrent Client , * How to download torrents from Bit Torrent Scene?

Scrape History ( seeds + peers )

Internal Files

Rampage.2018.720p.NEW.HDCAM.X264.HQMic.LLG
Sample.ts   12.19 MB
Rampage.2018.720p.NEW.HDCAM.X264.HQMic.LLG.mp4   1.14 GB

Hash Code

8394c7dfb862e1e5b26007bba8837eb2b44acc5d

Description

SCREENSHOT

SCREENSHOT

******************************Thumbnail:**********************

SCREENSHOT

******************************Screenshots:********************

Screenshot 1

Screenshot 2

Screenshot 3

Screenshot 4

Screenshot 5

Screenshot 6

Screenshot 7

Screenshot 8

Screenshot 9

Screenshot 0

**************************************************************

Complete name : Rampage.2018.720p.NEW.HDCAM.X264.HQMic.LLG.mp4
Format : MPEG-4
Format profile : Base Media
Codec ID : isom (isom/iso2/avc1/mp41)
File size : 1.14 GiB
Duration : 1 h 40 min
Overall bit rate : 1 636 kb/s
Writing application : Lavf57.56.101

Video
ID : 1
Format : AVC
Format/Info : Advanced Video Codec
Format profile : High@L3.1
Format settings : CABAC / 4 Ref Frames
Format settings, CABAC : Yes
Format settings, RefFrames : 4 frames
Codec ID : avc1
Codec ID/Info : Advanced Video Coding
Duration : 1 h 40 min
Bit rate : 1 500 kb/s
Width : 1 280 pixels
Height : 608 pixels
Display aspect ratio : 2.105
Frame rate mode : Constant
Frame rate : 23.976 (23976/1000) FPS
Color space : YUV
Chroma subsampling : 4:2:0
Bit depth : 8 bits
Scan type : Progressive
Bits/(Pixel*Frame) : 0.080
Stream size : 1.05 GiB (92%)

Audio
ID : 2
Format : MPEG Audio
Format version : Version 1
Format profile : Layer 3
Format settings : Joint stereo / MS Stereo
Codec ID : mp4a-6B
Duration : 1 h 40 min
Bit rate mode : Constant
Bit rate : 128 kb/s
Channel(s) : 2 channels
Sampling rate : 44.1 kHz
Compression mode : Lossy
Stream size : 91.6 MiB (8%)
Writing library : LAME3.99.5
Default : Yes
Alternate group : 1

Trackers

Refresh Leechers : Updated June 19, 2018

1. udp://tracker.openbittorrent.com:80/announce

2. udp://tracker.opentrackr.org:1337/announce

3. UDP://TRACKER.LEECHERS-PARADISE.ORG:6969/ANNOUNCE

Comments

You must log in to add a comment.

Embed Code

Sharing Widget

Related torrents

FILENAME SIZE SEEDS PEERS ADDED UPD
[i] Rampage (2018) [WEBRip] [720p] [YTS AM] 924.3 MB 5992 1272 1 month 4 days
[i] Rampage 2018.720p.HDCAM.X264-WeWantToSell 3.01 GB 978 154 3 months 1 month
[i] downloadhub in Rampage (2018) 720p BluRay x264 [Dual-Audio][Hindi 5 1 - English 5 1] ESubs - Downloadhub
posted by downloadhub in Movies - Action
1.02 GB 134 56 1 week 6 days
[i] Rampage 2018 720p HDCAM x264 Dual Audio [Hindi (Cleaned) - English] [MW]
posted by moviefreak in Movies - Action
1.02 GB 81 21 3 months 1 month
[i] Rampage (2018)[720p HQ Real PRE DVD HQ Aud [Tamil + Telugu + Hindi + Eng] - x264 - 1.2GB] 1.2 GB 63 10 3 months 1 month
[i] downloadhub in Rampage (2018) 720p Web-DL x264 [Dual-Audio][Hindi( Cleaned) - English] ESubs - Downloadhub
posted by downloadhub in Movies - Action
997.12 MB 59 19 1 month 2 weeks
[i] Rampage 2018 720p BluRay x264 Multi Languages [Hindi English Tamil Telugu] ESub [MW]
posted by moviefreak in Movies - Action
1.6 GB 56 35 1 week 5 days
[i] Rampage.2018.Movies.720p.HD.TS.x264.AAC.Clean.AC3.Eng.Audio.LLG
posted by LifeLongg in Movies - Action
962.05 MB 36 7 3 months 1 month
[i] Rampage 2018 720p WEB-DL x264 Dual Audio [Hindi - English 2 0] ESub [MW]
posted by moviefreak in Movies - Action
1.23 GB 30 9 1 month 2 weeks
[i] Rampage (2018) BluRay - 720p - [Hindi (DD5 1) + Eng] - 1GB[MOVCR]
posted by Tamilgun in Movies - Action
1.03 GB 28 10 1 week 6 days

Top Movies ( auto generated report )

FILENAME SIZE SEEDS PEERS ADDED UPD
[i] Tango One (2018) [BluRay] [720p] [YTS AM] 967.28 MB 1073 689 2 days 1 day
[i] Jurassic World Fallen Kingdom 2018 NEW HD-TS XViD AC3 ETRG 1.35 GB 1065 832 2 days 1 day
[i] downloadhub in Raazi (2018) Hindi 720p HDRip x264 AAC ESubs - Downloadhub 1.05 GB 936 682 4 days 3 days
[i] Sara's Notebook (2018) [BluRay] [720p] [YTS AM] 996.61 MB 772 332 2 days 1 day
[i] The Devil's Doorway (2018) [WEBRip] [720p] [YTS AM] 638.65 MB 701 200 2 days 1 day
[i] Hotel Transylvania 3 Summer Vacation 2018 720p HDCAM X264-24HD [MOVCR] 770.09 MB 694 237 4 days 3 days
[i] The Honey Killer (2018) [WEBRip] [720p] [YTS AM] 680.9 MB 676 167 2 days 1 day
[i] Tango One (2018) [BluRay] [1080p] [YTS AM] 1.81 GB 558 234 2 days 1 day
[i] Sara's Notebook (2018) [BluRay] [1080p] [YTS AM] 1.86 GB 530 191 2 days 1 day
[i] Billionaire Boys Club 2018 HDRip XViD-ETRG 708.01 MB 509 348 3 days 2 days