Red Sparrow 2018 1080p HC HDRip AAC 2 0 x264 [MW]

Posted by moviefreak •1817 on April 16, 2018 in Movies » Mystery , verified torrent

Size: 1.99 GB , Seeds: 6 , Peers: 6 ( Updated June 19, 2018 - Refresh )

* Download via Magnet Link , * To download files you need a Bittorrent Client , * How to download torrents from Bit Torrent Scene?

Scrape History ( seeds + peers )

Internal Files

Red Sparrow 2018 1080p HC HDRip AAC 2.0 x264 [MW]
Red Sparrow 2018 1080p HC HDRip AAC 2.0 x264 [MW].mkv   1.99 GB

Hash Code

200cada9bf9b9d53c8e61daf0d237741a94889e6

Description


SCREENSHOT


General
Format : Matroska
Format version : Version 4 / Version 2
File size : 1.99 GiB
Duration : 2 h 15 min
Overall bit rate : 2 099 kb/s

Video
ID : 1
Format : AVC
Format/Info : Advanced Video Codec
Format profile : High@L4.1
Format settings : CABAC / 4 Ref Frames
Format settings, CABAC : Yes
Format settings, RefFrames : 4 frames
Codec ID : V_MPEG4/ISO/AVC
Duration : 2 h 15 min
Bit rate : 2 000 kb/s
Width : 1 904 pixels
Height : 800 pixels
Display aspect ratio : 2.40:1
Frame rate mode : Constant
Frame rate : 29.970 (30000/1001) FPS
Color space : YUV
Chroma subsampling : 4:2:0
Bit depth : 8 bits
Scan type : Progressive
Bits/(Pixel*Frame) : 0.044
Stream size : 1.87 GiB (94%)
Writing library : x264 core 155 r2893 b00bcaf
Default : Yes
Forced : No

Audio
ID : 2
Format : AAC
Format/Info : Advanced Audio Codec
Format profile : LC
Codec ID : A_AAC-2
Duration : 2 h 15 min
Bit rate : 128 kb/s
Channel(s) : 2 channels
Channel positions : Front: L R
Sampling rate : 48.0 kHz
Frame rate : 46.875 FPS (1024 SPF)
Compression mode : Lossy
Stream size : 124 MiB (6%)
Language : English
Default : Yes
Forced : No




https://pichub.site/image/Jspq5
https://pichub.site/image/Jsr88
https://pichub.site/image/JsLaX
https://pichub.site/image/Jsvug
https://pichub.site/image/JsUEZ

Trackers

Refresh Leechers : Updated June 19, 2018

1. udp://tracker.pirateparty.gr:6969/announce

2. udp://tracker.opentrackr.org:1337/announce

3. udp://tracker.opentrackr.org:80/announce

4. udp://tracker.vanitycore.co:6969/announce

5. udp://public.popcorn-tracker.org:6969/announce

6. udp://9.rarbg.to:2720/announce

7. udp://9.rarbg.me:2740/announce

8. udp://9.rarbg.com:2790/announce

9. udp://inferno.demonoid.pw:3391/announce

10. udp://tracker.internetwarriors.net:1337/announce

11. udp://ipv4.tracker.harry.lu:80/announce

12. udp://p4p.arenabg.ch:1337/announce

13. http://tracker.vanitycore.co:6969/announce

14. http://public.popcorn-tracker.org:6969/announce

15. udp://tracker.zer0day.to:1337/announce

16. udp://tracker.leechers-paradise.org:6969/announce

17. udp://coppersurfer.tk:6969/announce

Comments

You must log in to add a comment.

Embed Code

Sharing Widget

Related torrents

FILENAME SIZE SEEDS PEERS ADDED UPD
[i] Red Sparrow (2018) [BluRay] [1080p] [YTS AM] 2.24 GB 2085 352 2 months 3 days
[i] Red Sparrow 2018 DTS ITA ENG 1080p BluRay x264-BLUWORLD mkv
posted by SPEEDY4572 in Movies - Thriller
12.49 GB 64 25 2 months 4 weeks
[i] Red.Sparrow.2018.BluRay.1080p.HEVC.Multi.AAC.5.1-DTOne 1.56 GB 21 26 1 month 3 weeks
[i] Red Sparrow 2018 iTA-ENG Bluray 1080p x264-CYBER mkv
posted by NickTnT in Movies - Thriller
10.16 GB 19 7 2 months 16 hours
[i] Czerwona Jaskółka - Red Sparrow (2018) [BRRip] [1080p] [PROAC] [NAPISY PL]
posted by PROAC in Movies - Thriller
2.24 GB 9 3 2 months 1 day
[i] Red Sparrow 2018 1080p BluRay x264 Dual Audio [Hindi DD 5 1 - English 2 0] ESub [MW]
posted by moviefreak in Movies - Thriller
2.46 GB 9 10 2 months 4 weeks
[i] 18+ Red Sparrow 2018 1080p HC HDRip X264 AC3 LLG
posted by LifeLongg in Movies - Drama
2.02 GB 8 5 2 months 3 weeks
[i] Red.Sparrow.2018.Multi+Hin.BluRay.1080p.x264.DTS-HD.MA7.1-DTOne 15.57 GB 8 12 2 months 4 weeks
[i] Red Sparrow (2018) (PROAC)(1080p)(BDRip)(x264)(NAPISY PL)
posted by PROAC in Movies - Thriller
2.24 GB 5 8 1 month 3 weeks

Top Movies ( auto generated report )

FILENAME SIZE SEEDS PEERS ADDED UPD
[i] Overboard (2018) [WEBRip] [720p] [YTS AM] 950.69 MB 5337 2987 1 day 21 hours
[i] How It Ends (2018) [WEBRip] [720p] [YTS AM] 970.57 MB 4127 2454 1 day 21 hours
[i] Furious (2017) [BluRay] [720p] [YTS AM] 1018.36 MB 3682 2215 1 day 21 hours
[i] Overboard (2018) [WEBRip] [1080p] [YTS AM] (1) 1.79 GB 2987 1164 1 day 21 hours
[i] Siberia (2018) [WEBRip] [720p] [YTS AM] 891.58 MB 2776 1456 1 day 21 hours
[i] How It Ends (2018) [WEBRip] [1080p] [YTS AM] 1.82 GB 2685 1386 1 day 21 hours
[i] Furious (2017) [BluRay] [1080p] [YTS AM] 1.9 GB 2622 1258 1 day 21 hours
[i] Siberia (2018) [WEBRip] [1080p] [YTS AM] 1.67 GB 1989 917 1 day 21 hours
[i] 7 Splinters in Time (2018) [WEBRip] [720p] [YTS AM] 653.09 MB 1218 446 1 day 21 hours
[i] Incredibles 2 2018 HDTC XViD AC3-ETRG 1.31 GB 1317 1064 3 days 2 days