Your IP Address is . Location is Your ISP and Government can track your torrent activity! Hide your IP with a VPN!

Redline (2009).H264.Italian.Jpn.Ac3.5.1.sub.ita.iCV-MIRCrew

DOWNLOAD TORRENT DOWNLOAD DOWNLOAD ANONYMOUS

Posted by robbyrs3 •400 on July 30, 2017 in Anime » Cartoons , verified torrent

Size: 1.31 GB , Seeds: 2 , Peers: 1 ( Updated November 6, 2017 - Refresh )

* Download via Magnet Link , * To download files you need a Bittorrent Client , * How to download torrents from Bit Torrent Scene?

Scrape History ( seeds + peers )

Internal Files

Redline (2009).H264.ita.jpn.sub.ita.iCV-MIRCrew
Redline (2009).H264.ita.jpn.sub.ita.iCV-MIRCrew.ita.srt   87.87 KB
Redline (2009).H264.ita.jpn.sub.ita.iCV-MIRCrew.mkv   1.31 GB
Redline (2009).H264.ita.jpn.sub.ita.iCV-MIRCrew.srt   969 Byte

Hash Code

10c70d43d366ec31799d2e1dd9496f73f4495e9f

Description

Redline (2009).H264.Italian.Jpn.Ac3.5.1.sub.ita.iCV-MIRCrew



SCREENSHOT
NO FOUND ONLY ORIGINAL RELEASE

SCREENSHOT

My release is always in double track audio italian and Original audio
for select it use VLC or dvd player home
not use wmp

Redline (2009)

SCREENSHOT

SCREENSHOT

SCREENSHOT

Titolo originale ?????
Lingua originale Giapponese
Paese di produzione Giappone
Anno 2009
Durata 101 min
Rapporto 1.85:1
Genere animazione, azione, fantascienza
Regia Takeshi Koike
Soggetto Katsuhito Ishii
Sceneggiatura Katsuhito Ishii, Yoji Enokido, Yoshiki Sakurai
Produttore Kentaro Yoshida, Yukiko Koike
Produttore esecutivo Masahiro Fukushima
Casa di produzione Madhouse, Tohokushinsha Film
Distribuzione (Italia) Kazé
Fotografia Ryu Takizawa
Effetti speciali Kumiko Taniguchi
Musiche James Shimoji
Storyboard Takeshi Koike
Art director Yuko Kobari
Character design Katsuhito Ishii, Takeshi Koike
Animatori Hiroshi Hamasaki, Hiroyuki Aoyama, Masanori Shino, Yoshiaki Kawajiri

SCREENSHOT

Doppiatori italiani

Gianluca Crisafi: JP
Perla Liberatori: Sonoshee McLaren
Giovanni Petrucci: Mogura Oyaji
Vladimiro Conti: frisbee
Pierluigi Astore: Presidente Roboworld, Minerva Hanness
Stefano Billi: Colonnello Volton
Mimmo Strati: Machine Head Tetsujin
Toni Orlandi: Inuki
Alberto Bognanni: Titan, Kurukuru DAZA
Ilaria Giorgino: Boiboi, Robopolice
Stefano Santerini: Gori-Rider
Luca Graziani: Lynchman


SCREENSHOT

Redline è il nome della gara automobilistica illegale più grande dell'universo che si svolge una volta ogni cinque anni in un luogo dello spazio che viene rivelato poco prima della partenza. Il pilota protagonista JP vuole partecipare e ha bisogno di qualificarsi ottenendo una buona posizione alla gara Yellowline..........

SCREENSHOT

A story about the most popular racing event in the galaxy, the Redline, and the various racers who compete in it.

SCREENSHOT

SCREENSHOT
SCREENSHOT
SCREENSHOT


SCREENSHOT


[spoiler]
General
Unique ID : 125512539231643885742086403143608961897 (0x5E6CD5F509AD1B5EA11E5BCAD0420B69)
Complete name : Redline (2009).H264.ita.jpn.sub.ita.iCV-MIRCrew.mkv
Format : Matroska
Format version : Version 2
File size : 1.31 GiB
Duration : 1h 25mn
Overall bit rate : 2 178 Kbps
Encoded date : UTC 2016-03-18 11:26:49
Writing application : Lavf54.63.100
Writing library : Lavf54.63.100
COPYRIGHT : robbyrs
DATE : 2017

Video
ID : 1
Format : AVC
Format/Info : Advanced Video Codec
Format profile : Main@L4.1
Format settings, CABAC : Yes
Format settings, ReFrames : 4 frames
Codec ID : V_MPEG4/ISO/AVC
Duration : 1h 25mn
Bit rate : 1 290 Kbps
Width : 720 pixels
Height : 404 pixels
Display aspect ratio : 16:9
Frame rate mode : Variable
Frame rate : 23.976 fps
Color space : YUV
Chroma subsampling : 4:2:0
Bit depth : 8 bits
Scan type : Progressive
Bits/(Pixel*Frame) : 0.185
Stream size : 761 MiB (57%)
Title : Redline (2009)
Writing library : x264 core 130 r2273
Encoding settings : cabac=1 / ref=4 / deblock=1:1:1 / analyse=0x1:0x131 / me=hex / subme=7 / psy=1 / psy_rd=0.40:0.00 / mixed_ref=0 / me_range=16 / chroma_me=1 / trellis=1 / 8x8dct=0 / cqm=0 / deadzone=21,11 / fast_pskip=1 / chroma_qp_offset=-2 / threads=12 / lookahead_threads=2 / sliced_threads=0 / nr=0 / decimate=1 / interlaced=0 / bluray_compat=0 / constrained_intra=0 / bframes=5 / b_pyramid=0 / b_adapt=1 / b_bias=0 / direct=3 / weightb=1 / open_gop=0 / weightp=2 / keyint=230 / keyint_min=23 / scenecut=40 / intra_refresh=0 / rc_lookahead=40 / rc=abr / mbtree=1 / bitrate=1290 / ratetol=1.0 / qcomp=0.60 / qpmin=10 / qpmax=69 / qpstep=4 / vbv_maxrate=24000 / vbv_bufsize=24000 / nal_hrd=none / ip_ratio=1.40 / aq=1:0.60
Language : Italian
Default : Yes
Forced : No
DURATION : 01:42:09.582000000
NUMBER_OF_FRAMES : 146963
NUMBER_OF_BYTES : 5273360881
_STATISTICS_WRITING_APP : mkvmerge v8.9.0 ('Father Daughter') 64bit
_STATISTICS_WRITING_DATE_UTC : 2016-03-18 11:26:49
_STATISTICS_TAGS : BPS DURATION NUMBER_OF_FRAMES NUMBER_OF_BYTES

Audio #1
ID : 2
Format : AC-3
Format/Info : Audio Coding 3
Mode extension : CM (complete main)
Codec ID : A_AC3
Duration : 1h 25mn
Bit rate mode : Constant
Bit rate : 448 Kbps
Channel(s) : 6 channels
Channel positions : Front: L C R, Side: L R, LFE
Sampling rate : 48.0 KHz
Bit depth : 16 bits
Compression mode : Lossy
Delay relative to video : 1mn 5s
Stream size : 275 MiB (21%)
Language : Italian
Default : No
Forced : No
DURATION : 01:42:10.048000000
NUMBER_OF_FRAMES : 191564
NUMBER_OF_BYTES : 490403840
_STATISTICS_WRITING_APP : mkvmerge v8.9.0 ('Father Daughter') 64bit
_STATISTICS_WRITING_DATE_UTC : 2016-03-18 11:26:49
_STATISTICS_TAGS : BPS DURATION NUMBER_OF_FRAMES NUMBER_OF_BYTES

Audio #2
ID : 3
Format : AC-3
Format/Info : Audio Coding 3
Mode extension : CM (complete main)
Codec ID : A_AC3
Duration : 1h 25mn
Bit rate mode : Constant
Bit rate : 448 Kbps
Channel(s) : 6 channels
Channel positions : Front: L C R, Side: L R, LFE
Sampling rate : 48.0 KHz
Bit depth : 16 bits
Compression mode : Lossy
Delay relative to video : 1mn 5s
Stream size : 275 MiB (21%)
Language : Japanese
Default : No
Forced : No
DURATION : 01:42:10.048000000
NUMBER_OF_FRAMES : 191564
NUMBER_OF_BYTES : 490403840
_STATISTICS_WRITING_APP : mkvmerge v8.9.0 ('Father Daughter') 64bit
_STATISTICS_WRITING_DATE_UTC : 2016-03-18 11:26:49
_STATISTICS_TAGS : BPS DURATION NUMBER_OF_FRAMES NUMBER_OF_BYTES

Text #1
ID : 4
Format : ASS
Codec ID : S_TEXT/ASS
Codec ID/Info : Advanced Sub Station Alpha
Compression mode : Lossless
Title : Italiano
Language : Italian
Default : Yes
Forced : No
DURATION : 01:15:59.722000000
NUMBER_OF_FRAMES : 14
NUMBER_OF_BYTES : 429
_STATISTICS_WRITING_APP : mkvmerge v8.9.0 ('Father Daughter') 64bit
_STATISTICS_WRITING_DATE_UTC : 2016-03-18 11:26:49
_STATISTICS_TAGS : BPS DURATION NUMBER_OF_FRAMES NUMBER_OF_BYTES

Text #2
ID : 5
Format : ASS
Codec ID : S_TEXT/ASS
Codec ID/Info : Advanced Sub Station Alpha
Compression mode : Lossless
Title : Italiano
Language : Italian
Default : No
Forced : No
DURATION : 01:41:22.868000000
NUMBER_OF_FRAMES : 1185
NUMBER_OF_BYTES : 43311
_STATISTICS_WRITING_APP : mkvmerge v8.9.0 ('Father Daughter') 64bit
_STATISTICS_WRITING_DATE_UTC : 2016-03-18 11:26:49
_STATISTICS_TAGS : BPS DURATION NUMBER_OF_FRAMES NUMBER_OF_BYTES


[/spoiler]

Trackers

Refresh Leechers : Updated November 6, 2017

1. udp://tracker.coppersurfer.tk:6969/announce

2. udp://tracker.opentrackr.org:1337/announce

3. udp://tracker.leechers-paradise.org:6969/announce

4. udp://9.rarbg.com:2710/announce

5. udp://9.rarbg.to:2710/announce

6. udp://9.rarbg.me:2710/announce

7. udp://glotorrents.pw:6969/announce

8. udp://tracker.openbittorrent.com:80/announce

9. udp://tracker.pubt.net:2710/announce

Comments

You must log in to add a comment.

Embed Code

Sharing Widget