Rum (2018) 720p Hindi Dubbed (Audio Cleaned) HDRip x264 AAC +ESubs by Full4movies

DOWNLOAD ( MAGNET LINK ) DOWNLOAD DOWNLOAD ANONYMOUS

Posted on June 14, 2018 in Movies » Misc

Size: 1.3 GB , Seeds: 4 , Peers: 16 ( Updated June 14, 2018 - Refresh )

* Download via Magnet Link , * To download files you need a Bittorrent Client , * How to download torrents from Bit Torrent Scene?

Scrape History ( seeds + peers )

Internal Files

Rum (2018) 720p Hindi Dubbed (Audio Cleaned) HDRip x264 AAC +ESubs by Full4movies
Rum   2018) 720p Hindi Dubbed (Audio Cleaned) HDRip x264 AAC +ESubs by Full4movies.mkv (1.3 GB

Hash Code

4808db2a4b48346ce82eb56a86d6080493385eff

Description

SCREENSHOT

General

Complete name : Rum (2018) 720p Hindi Dubbed (Audio Cleaned) HDRip x264 AAC +ESubs by Full4movies.mkv

Format : Matroska

Format version : Version 4 / Version 2

File size : 1.31 GiB

Duration : 2 h 10 min

Overall bit rate : 1 443 kb/s

Encoded date : UTC 2018-06-14 12:11:13

Writing application : mkvmerge v8.1.0 ('Psychedelic Postcard') 32bit

Writing library : libebml v1.3.1 + libmatroska v1.4.2


Video

ID : 1

Format : AVC

Format/Info : Advanced Video Codec

Format profile : [email protected]
Format settings, CABAC : Yes

Format settings, RefFrames : 5 frames

Codec ID : V_MPEG4/ISO/AVC

Duration : 2 h 10 min

Bit rate : 1 280 kb/s

Width : 1 280 pixels

Height : 720 pixels

Display aspect ratio : 16:9

Frame rate mode : Constant

Frame rate : 23.810 FPS

Color space : YUV

Chroma subsampling : 4:2:0

Bit depth : 8 bits

Scan type : Progressive

Bits/(Pixel*Frame) : 0.058

Stream size : 1.17 GiB (89%)

Writing library : x264 core 148 r2643 5c65704

Language : Tamil

Default : Yes

Forced : No


Audio

ID : 2

Format : AAC

Format/Info : Advanced Audio Codec

Format profile : LC

Codec ID : A_AAC

Duration : 2 h 10 min

Bit rate : 159 kb/s

Channel(s) : 2 channels

Channel positions : Front: L R

Sampling rate : 48.0 kHz

Frame rate : 46.875 FPS (1024 SPF)

Compression mode : Lossy

Stream size : 148 MiB (11%)

Language : Hindi

Default : Yes

Forced : No


Text

ID : 3

Format : ASS

Codec ID : S_TEXT/ASS

Codec ID/Info : Advanced Sub Station Alpha

Duration : 2 h 7 min

Bit rate : 80 b/s

Count of elements : 1362

Compression mode : Lossless

Stream size : 75.1 KiB (0%)

Language : English

Default : Yes

Forced : No


Screen Shoots
SCREENSHOT

Torrent location

https://www.1337x.to/torrent/3054573/Rum-2018-720p-Hindi-Dubbed-Audio-Cleaned-HDRip-x264-AAC-ESubs-by-Full4movies/

Trackers

Refresh Leechers : Updated June 14, 2018

1. udp://9.rarbg.com:2710/announce

2. udp://tracker.opentrackr.org:1337/announce

3. udp://tracker.pirateparty.gr:6969/announce

4. udp://tracker.leechers-paradise.org:6969/announce

5. udp://tracker.coppersurfer.tk:6969/announce

6. udp://tracker.zer0day.to:1337/announce

Comments

You must log in to add a comment.

Embed Code

Sharing Widget

Related torrents

FILENAME SIZE SEEDS PEERS ADDED UPD
[i] Richie (2018) Hindi Dubbed 720p HD x264 AAC 850MB [MOVCR] mp4
posted by Tamilgun in Movies - Drama
856.13 MB 121 107 5 days 4 days
[i] Jurassic World Fallen Kingdom 2018 Hindi Dubbed 720p HDCAM x264 AAC { TaRa } mkv
posted by SkTaRa in Movies - Action
787.7 MB 66 13 1 week 3 days
[i] Black Panther 2018 720p HD-TS Hindi Dubbed x264 AAC
posted by moviefreak in Movies - Misc
1.31 GB 28 8 3 months 2 weeks
[i] Mard The Khiladi(Rowdy Fellow) 2014 Hindi Dubbed 720p WEB-DL x264 AAC { TaRa } mkv
posted by SkTaRa in Movies - Action
1.22 GB 12 1 3 weeks 1 week
[i] Vivegam (2018) 720p Hindi Dubbed WEB HD x264 AAC 1 7GB [MOVCR] MP4
posted by Tamilgun in Movies - Action
1.71 GB 12 58 17 hours 15 hours
[i] No 1 Judwaa (Maattrraan) 2012 Hindi Dubbed 720p WEB-DL x264 AAC { TaRa } mkv
posted by SkTaRa in Movies - Drama
1.01 GB 10 4 2 weeks 4 days
[i] Bravo (2017) Hindi Dubbed 720p WEB-DL x264 AAC { TaRa }
posted by SkTaRa in Movies - Romance
1.27 GB 9 0 10 months 5 months
[i] Hulk (2003) Hindi Dubbed 720p Blu-Ray x264 AAC { TaRa }
posted by SkTaRa in Movies - Comedy
979.52 MB 8 5 12 months 4 months
[i] Thor Ragnarok (2017) BluRay 720p Hindi Dubbed Orignal Audio AVC ACC - LatestHDMovies 1.37 GB 8 8 3 months 3 days
[i] Badmaash (2018) 720p Hindi Dubbed HD x264 AAC 1GB [MOVCR] MP4
posted by Tamilgun in Movies - Action
992.15 MB 8 4 6 days 17 hours

Top Movies ( auto generated report )

FILENAME SIZE SEEDS PEERS ADDED UPD
[i] Escape Plan 2 Hades (2018) [BluRay] [720p] [YTS AM] 821.12 MB 6877 4793 1 day 5 hours
[i] Escape Plan 2 Hades (2018) [BluRay] [1080p] [YTS AM] 1.52 GB 4347 2178 1 day 5 hours
[i] Beirut (2018) [WEBRip] [720p] [YTS AM] 929.6 MB 2164 1197 1 day 5 hours
[i] Set It Up (2018) [WEBRip] [720p] [YTS AM] 888.3 MB 2122 1500 1 day 5 hours
[i] Ghostland (2018) [BluRay] [720p] [YTS AM] 780.16 MB 1789 1179 1 day 4 hours
[i] Beirut (2018) [WEBRip] [1080p] [YTS AM] 1.75 GB 1719 799 1 day 5 hours
[i] Acrimony (2018) [WEBRip] [720p] [YTS AM] 1017.95 MB 1692 1180 3 days 2 days
[i] Truth or Dare 2018 HDRip XViD AC3-ETRG 1.24 GB 1593 1114 2 days 1 day
[i] Ghostland (2018) [BluRay] [1080p] [YTS AM] 1.46 GB 1324 706 1 day 4 hours
[i] The Yellow Birds (2017) [WEBRip] [720p] [YTS AM] 813 MB 1320 976 1 day 5 hours