Shin Getter Robot contro Neo Getter Robot (1998) OAV 1-4.H264.Italian.Jpn.Ac3.sub.ita.iCV-MIRCrew

DOWNLOAD TORRENT DOWNLOAD DOWNLOAD ANONYMOUS

Posted by robbyrs3 •376 on September 12, 2017 in Anime » Cartoons , verified torrent

Size: 1.24 GB , Seeds: 4 , Peers: 1 ( Updated October 16, 2017 - Refresh )

* Download via Magnet Link , * To download files you need a Bittorrent Client , * How to download torrents from Bit Torrent Scene?

Scrape History ( seeds + peers )

Internal Files

Shin Getter Robot contro Neo Getter Robot (1998).H264.ita.jpn.sub.ita.iCV-MIRCrew.mkv
Shin Getter Robot contro Neo Getter Robot (1998).H264.ita.jpn.sub.ita.iCV-MIRCrew.mkv   1.24 GB

Hash Code

2a758ab357c8bfaa46e2ea7ff0798048da1c5a5e

Description

Shin Getter Robot contro Neo Getter Robot (1998) OAV 1-4.H264.Italian.Jpn.Ac3.sub.ita.iCV-MIRCrew



SCREENSHOT
NO FOUND ONLY ORIGINAL RELEASE

SCREENSHOT

My release is always in double track audio italian and Original audio
for select it use VLC or dvd player home
not use wmp

Shin Getter Robot contro Neo Getter Robot (1998) OAV

Neo Getter Robot. Partenza!
「出撃!! ネオゲッターロボ!」 - Shutsugeki!! Neogettaarobo!
2 L'arrivo di Texas Mack!
「登場!! テキサスマック!」 - Tōjō!! Tekisasumakku!
3 Rivivi!! Shin Getter Robot
「復活!! 真ゲッターロボ!」 - Fukkatsu!! Ma Gettaarobo!
4 Per il futuro del mondo!
「切り拓け!! 地球の未来!」 - Giri Hirake!! Chikyū No Mirai!

SCREENSHOT

SCREENSHOT

SCREENSHOT

Autore Go Nagai, Ken Ishikawa
Regia Jun Kawagoe
Soggetto Shinzo Fujita
Char. design Fujio Suzuki, Ken Ishikawa originale
Mecha design Fujio Suzuki, Ken Ishikawa originale
Musiche Kazuo Nobuta
Studio Dynamic Planning, Brains Base
1ª edizione 21 dicembre 2000 – 25 giugno 2001
Episodi 4 (completa)
Durata ep. 30 min
1ª edizione it. 12 novembre 2001

SCREENSHOT

***********************************

SCREENSHOT

Shin Getter Robot contro Neo Getter Robot (真ゲッターロボ対ネオゲッターロボ Shin Gettâ Robo tai Neo Gettâ Robo?) è una serie di 4 OAV mecha basati sui personaggi della serie di Getter Robot di Go Nagai e Ken Ishikawa (e in particolare su Getter Robot Go e Shin Getter Robot).

SCREENSHOT

Sent to jail after being accused of murdering Getter Robo creator Dr. Saotome, Ryoma Nagare must once again team up with his former comrades and pilot Getter Robo when Saotome returns from

SCREENSHOT

SCREENSHOT
SCREENSHOT
SCREENSHOT
SCREENSHOT


SCREENSHOT


[spoiler]
General
Unique ID : 299710628372594428549753238802497236496 (0xE17A2AD9A3477ED123C920BB14D76E10)
Complete name : Shin Getter Robot contro Neo Getter Robot (1998).H264.ita.jpn.sub.ita.iCV-MIRCrew.mkv
Format : Matroska
Format version : Version 2
File size : 1.24 GiB
Duration : 1h 43mn
Overall bit rate : 1 708 Kbps
Movie name : Film principale
Encoded date : UTC 2017-07-19T19:51:56Z
Writing application : HandBrake 0.10.5 2016021100
Writing library : Lavf55.12.0

Video
ID : 1
Format : AVC
Format/Info : Advanced Video Codec
Format profile : Main@L4.0
Format settings, CABAC : Yes
Format settings, ReFrames : 4 frames
Codec ID : V_MPEG4/ISO/AVC
Duration : 1h 43mn
Bit rate : 1 290 Kbps
Width : 720 pixels
Height : 404 pixels
Display aspect ratio : 16:9
Frame rate mode : Variable
Frame rate : 23.976 fps
Color space : YUV
Chroma subsampling : 4:2:0
Bit depth : 8 bits
Scan type : Progressive
Bits/(Pixel*Frame) : 0.185
Stream size : 959 MiB (76%)
Writing library : x264 core 142 r2479 dd79a61
Encoding settings : cabac=1 / ref=1 / deblock=1:1:1 / analyse=0x1:0x111 / me=hex / subme=2 / psy=1 / psy_rd=0.40:0.00 / mixed_ref=0 / me_range=16 / chroma_me=1 / trellis=0 / 8x8dct=0 / cqm=0 / deadzone=21,11 / fast_pskip=1 / chroma_qp_offset=0 / threads=12 / lookahead_threads=3 / sliced_threads=0 / nr=0 / decimate=1 / interlaced=0 / bluray_compat=0 / constrained_intra=0 / bframes=5 / b_pyramid=2 / b_adapt=1 / b_bias=0 / direct=1 / weightb=1 / open_gop=0 / weightp=1 / keyint=240 / keyint_min=24 / scenecut=40 / intra_refresh=0 / rc_lookahead=10 / rc=abr / mbtree=1 / bitrate=1290 / ratetol=1.0 / qcomp=0.60 / qpmin=0 / qpmax=69 / qpstep=4 / vbv_maxrate=20000 / vbv_bufsize=25000 / nal_hrd=none / filler=0 / ip_ratio=1.40 / aq=1:0.60
Default : Yes
Forced : No
Color primaries : BT.709-5, BT.1361, IEC 61966-2-4, SMPTE RP177
Transfer characteristics : BT.709-5, BT.1361
Matrix coefficients : BT.709-5, BT.1361, IEC 61966-2-4 709, SMPTE RP177

Audio #1
ID : 2
Format : AC-3
Format/Info : Audio Coding 3
Mode extension : CM (complete main)
Codec ID : A_AC3
Duration : 1h 43mn
Bit rate mode : Constant
Bit rate : 192 Kbps
Channel(s) : 2 channels
Channel positions : Front: L R
Sampling rate : 48.0 KHz
Bit depth : 16 bits
Compression mode : Lossy
Delay relative to video : 1mn 5s
Stream size : 143 MiB (11%)
Title : Stereo
Language : Italian
Default : Yes
Forced : No

Audio #2
ID : 3
Format : AC-3
Format/Info : Audio Coding 3
Mode extension : CM (complete main)
Codec ID : A_AC3
Duration : 1h 43mn
Bit rate mode : Constant
Bit rate : 192 Kbps
Channel(s) : 2 channels
Channel positions : Front: L R
Sampling rate : 48.0 KHz
Bit depth : 16 bits
Compression mode : Lossy
Delay relative to video : 1mn 5s
Stream size : 143 MiB (11%)
Title : Stereo
Language : Japanese
Default : No
Forced : No

Text #1
ID : 4
Format : PGS
Codec ID : S_HDMV/PGS
Codec ID/Info : The same subtitle format used on BDs/HD-DVDs
Language : Italian
Default : No
Forced : No

Text #2
ID : 5
Format : PGS
Codec ID : S_HDMV/PGS
Codec ID/Info : The same subtitle format used on BDs/HD-DVDs
Language : Italian
Default : No
Forced : No

Menu
00:00:00.000 : :chapter 1
00:06:10.954 : :chapter 2
00:07:38.624 : :chapter 3
00:22:05.949 : :chapter 4
00:23:55.434 : :chapter 5
00:24:26.882 : :chapter 6
00:26:24.166 : :chapter 7
00:27:49.751 : :chapter 8
00:46:45.094 : :chapter 9
00:48:34.203 : :chapter 10
00:49:05.275 : :chapter 11
00:50:58.639 : :chapter 12
00:52:24.099 : :chapter 13
01:13:07.299 : :chapter 14
01:14:57.367 : :chapter 15
01:15:28.398 : :chapter 16
01:16:12.734 : :chapter 17
01:17:39.196 : :chapter 18
01:42:15.879 : :chapter 19


[/spoiler]

Trackers

Refresh Leechers : Updated October 16, 2017

1. udp://tracker.coppersurfer.tk:6969/announce

2. udp://tracker.opentrackr.org:1337/announce

3. udp://tracker.leechers-paradise.org:6969/announce

4. udp://9.rarbg.com:2710/announce

5. udp://9.rarbg.to:2710/announce

6. udp://9.rarbg.me:2710/announce

7. udp://glotorrents.pw:6969/announce

8. udp://tracker.openbittorrent.com:80/announce

9. udp://tracker.pubt.net:2710/announce

Comments

You must log in to add a comment.

Embed Code

Sharing Widget

Related torrents

FILENAME SIZE SEEDS PEERS ADDED UPD
[i] Shin Getter Robot contro Neo Getter Robo S01e01-04 [H264 - Ita Jap Aac] completa 843.79 MB 2 0 3 years 3 months