Your IP Address is . Location is Your ISP and Government can track your torrent activity! Hide your IP with a VPN!

The Constant Gardener 2005 720p Esub BRRIP Dual Audio English Hindi GOPISAHI

DOWNLOAD TORRENT DOWNLOAD DOWNLOAD ANONYMOUS

Posted by gopisahi •491 on August 12, 2017 in Movies » Drama , verified torrent

Size: 647.1 MB , Seeds: 1 , Peers: 1 ( Updated November 19, 2017 - Refresh )

* Download via Magnet Link , * To download files you need a Bittorrent Client , * How to download torrents from Bit Torrent Scene?

Scrape History ( seeds + peers )

Internal Files

The Constant Gardener 2005 720p Esub BRRIP Dual Audio English Hindi GOPISAHI.mkv
The Constant Gardener 2005 720p Esub BRRIP Dual Audio English Hindi GOPISAHI.mkv   647.1 MB

Hash Code

ee9e24ccbf915c61e49a3b5edb0048edc1078bd9

Description

SCREENSHOT
General
Unique ID : 21337127700424939428952998383774726.....
Complete name : F:DUB2005The Constant Gardener 2005 720p Esub BRRIP Dual Audio English Hindi GOPISAHI
Format : Matroska
Format version : Version 4 / Version 2
File size : 647 MiB
Duration : 1 h 53 min
Overall bit rate : 798 kb/s
Movie name : The Constant Gardene 2005 G


Video
Format : AVC
Codec ID : V_MPEG4/ISO/AVC
Duration : 1 h 53 min
Bit rate : 594 kb/s
Width : 1 280 pixels
Height : 720 pixels
Display aspect ratio : 16:9
Frame rate mode : Constant
Frame rate : 25.000 FPS
Original frame rate : 23.976 FPS
Stream size : 500 MiB (77%)
Writing library : x264 core 68 r1183M f21daff

Audio #1
Format : AAC
Duration : 1 h 53 min
Bit rate : 84.8 kb/s
Channel(s) : 6 channels
Channel positions : Front: L C R, Side: L R, LFE
Sampling rate : 44.1 kHz
Frame rate : 43.066 FPS (1024 SPF)
Stream size : 68.8 MiB (11%)
Language : English

Audio #2
Format : AAC
Duration : 1 h 53 min
Bit rate : 94.1 kb/s
Channel(s) : 6 channels
Channel positions : Front: L C R, Side: L R, LFE
Sampling rate : 44.1 kHz
Frame rate : 43.066 FPS (1024 SPF)
Stream size : 76.3 MiB (12%)
Language : Hindi
Text
Language : English
SCREENSHOT
SCREENSHOT
SCREENSHOT
SCREENSHOT

Trackers

Refresh Leechers : Updated November 19, 2017

1. udp://tracker.coppersurfer.tk:6969/announce

2. udp://tracker.opentrackr.org:1337/announce

3. udp://tracker.zer0day.to:1337/announce

4. udp://zer0day.to:1337/announce

5. udp://p4p.arenabg.com:1337/announce

6. udp://explodie.org:6969/announce

7. udp://tracker.leechers-paradise.org:6969/announce

8. udp://public.popcorn-tracker.org:6969/announce

9. udp://explodie.org:6969

Comments

You must log in to add a comment.

Embed Code

Sharing Widget

Related torrents

FILENAME SIZE SEEDS PEERS ADDED UPD
[i] The Constant Gardener (2005) BrRip 720p - 550MB - YIFY
posted by imarion in Movies - Mystery
549.64 MB 86 10 4 years 6 months
[i] The Constant Gardener 2005 720p BluRay H264 AAC-RARBG 1.55 GB 6 2 2 years 4 months
[i] The.Constant.Gardener.2005.Bluray.1080p.DTS-HD.x264-Grym 16.29 GB 4 2 1 year 3 months
[i] The.Constant.Gardener[2005]DvDrip[Eng]-aXXo 701.15 MB 3 0 6 years 7 months
[i] The Constant Gardener (2005) 720p.BRrip.Sujaidr 1.09 GB 3 0 3 years 1 month
[i] The Constant Gardener [2005] BDRip 720p [Eng Rus]-Junoon 594.3 MB 0 1 6 years 7 months
[i] The.Constant.Gardener.2005.720p.BluRay.x264-SiNNERS 6.61 GB 0 0 5 years 6 months
[i] The Constant Gardener 2005 720p Bluray anoXmous 701.3 MB 0 2 4 years 6 months
[i] The Constant Gardener 2005 MULTi DVDRip AC3 x264-HEAVYMENTAL 1.95 GB 0 0 4 years 6 months
[i] The Constant Gardener 2005 720p BluRay DTS x264-DON 8.01 GB 0 1 4 years 5 months

Top Movies ( auto generated report )

FILENAME SIZE SEEDS PEERS ADDED UPD
[i] Stronger (2017) [720p] [YTS AG] 865.1 MB 2998 1923 1 day 22 hours
[i] The LEGO Ninjago Movie (2017) [720p] [YTS AG] 747.68 MB 2815 1483 1 day 22 hours
[i] The LEGO Ninjago Movie (2017) [1080p] [YTS AG] 1.54 GB 2568 1252 1 day 22 hours
[i] Stronger (2017) [1080p] [YTS AG] 1.8 GB 2364 1195 1 day 22 hours
[i] Leatherface (2017) [720p] [YTS AG] 649.88 MB 1750 888 1 day 22 hours
[i] Victoria & Abdul (2017) [1080p] [YTS AG] 1.69 GB 1536 761 1 day 22 hours
[i] Victoria & Abdul (2017) [720p] [YTS AG] 812.01 MB 1692 973 1 day 22 hours
[i] Leatherface (2017) [1080p] [YTS AG] 1.34 GB 1449 615 1 day 22 hours
[i] The.LEGO.Ninjago.Movie.2017.1080p.BluRay.H264.AAC-RARBG 1.95 GB 855 424 2 days 19 hours
[i] IT.2017.WEBRip.x264-SHITBOX[rarbg] 1.11 GB 1106 615 1 day 13 hours